<?xml version="1.0" encoding="UTF-8"?><svg xmlns="http://www.w3.org/2000/svg" width="100%" height="100%"><defs><font id="web" horiz-adv-x="838"><!--





NOTICE: --><font-face font-family="" units-per-em="2048" panose-1="2 11 8 6 3 9 2 5 2 4" ascent="2066" descent="-432" alphabetic="0"/><missing-glyph horiz-adv-x="1536" d="M256 0V1280H1280V0H256ZM288 32H1248V1248H288V32Z"/><glyph unicode=" " horiz-adv-x="361"/><glyph unicode="!" horiz-adv-x="553" d="M516 1619L450 400H138L72 1619H516ZM483 324V0H105V324H483Z"/><glyph unicode="&quot;" horiz-adv-x="757" d="M89 1098L36 1371V1619H342V1371L296 1098H89ZM468 1098L415 1371V1619H721V1371L674 1098H468Z"/><glyph unicode="#" horiz-adv-x="1283" d="M36 1061H344L428 1444H617L533 1061H888L970 1444H1159L1077 1061H1247V871H1041L978 569H1247V380H942L860 0H670L753 380H394L316 0H125L206 380H36V569H245L308 871H36V1061ZM497 871L434 570H790L852 871H497Z"/><glyph unicode="$" horiz-adv-x="1121" d="M1019 1147H615V1214Q615 1321 601 1354T541 1387Q504 1387 486 1359T467 1273Q467 1178 505 1140Q542 1102 723 992Q877 899 933 850T1027 710T1066 484Q1066 268 962 145T650 -7V-159H464V-2Q302 14 181 122T60 501V580H464V481Q464 318 476 279T537 239Q578 239 598 266T618 348Q618 484 599 542T469 670Q284 786 218 840T103 994T54 1218Q54 1399 156 1502T464 1629V1758H650V1629Q837 1605 930 1504T1023 1223Q1023 1198 1019 1147Z"/><glyph unicode="%" horiz-adv-x="1419" d="M1103 1650L470 -31H316L951 1650H1103ZM632 1343V1065Q632 956 612 902T524 807T345 766Q217 766 150 804T60 897T36 1052V1343Q36 1463 60 1520T155 1614T328 1650Q442 1650 513 1611T608 1515T632 1343ZM376 1414Q376 1478 370 1493T334 1508Q307 1508 299 1492T291 1414V1006Q291 936 298 922T335 908Q361 908 368 924T376 999V1414ZM1383 561V282Q1383 174 1363 119T1275 24T1096 -17Q969 -17 902 22T811 115T787 269V561Q787 680 811 737T906 831T1079 868Q1194 868 1265 828T1359 732T1383 561ZM1127 631Q1127 695 1121 710T1085 726Q1058 726 1051 710T1043 631V223Q1043 154 1050 140T1086 126Q1113 126 1120 141T1127 217V631Z"/><glyph unicode="&amp;" horiz-adv-x="1180" d="M1152 615V342L1038 270L1180 0H807L758 90Q570 -34 402 -34Q226 -34 131 83T36 365Q36 497 92 572T260 694Q100 809 100 1005Q100 1174 214 1277T528 1380Q708 1380 811 1279T915 1022Q915 858 789 731L932 473L1152 615ZM529 899Q597 988 597 1069Q597 1104 577 1133T521 1162Q488 1162 471 1140T454 1073Q454 979 529 899ZM620 273L489 491Q414 423 414 344Q414 287 437 259T507 230Q556 230 620 273Z"/><glyph unicode="'" horiz-adv-x="379" d="M89 1098L36 1371V1619H342V1371L296 1098H89Z"/><glyph unicode="(" horiz-adv-x="642" d="M605 1619V1408Q522 1408 498 1401T462 1369T450 1224V395Q450 284 459 257T492 220T605 211V0H478Q302 0 220 32T111 128T84 396V1223Q84 1427 110 1491T221 1587T478 1619H605Z"/><glyph unicode=")" horiz-adv-x="642" d="M36 1619H163Q335 1619 420 1587T531 1491T557 1223V396Q557 191 531 128T422 33T163 0H36V211Q125 211 149 220T182 256T192 395V1224Q192 1343 180 1368T144 1401T36 1408V1619Z"/><glyph unicode="*" horiz-adv-x="575" d="M352 1619V1458L500 1509L545 1391L397 1329L490 1197L390 1123L289 1256L190 1123L85 1197L179 1334L30 1391L73 1509L226 1458V1619H352Z"/><glyph unicode="+" horiz-adv-x="1092" d="M64 930H423V1290H667V930H1028V686H667V328H423V686H64V930Z"/><glyph unicode="," horiz-adv-x="344" d="M307 317V172Q307 58 280 -15T187 -139T36 -207V-91Q96 -57 104 0H36V317H307Z"/><glyph unicode="-" horiz-adv-x="603" d="M567 803V524H36V803H567Z"/><glyph unicode="." horiz-adv-x="378" d="M341 330V0H36V330H341Z"/><glyph unicode="/" horiz-adv-x="810" d="M798 1650L318 -31H12L495 1650H798Z"/><glyph unicode="0" horiz-adv-x="1098" d="M1025 1071V531Q1025 347 1005 263T922 106T770 1T571 -31Q426 -31 330 2T177 107T96 256T72 506V1071Q72 1294 110 1405T263 1583T541 1650Q674 1650 779 1604T936 1490T1006 1339T1025 1071ZM621 1207Q621 1336 609 1368T550 1401Q505 1401 491 1367T476 1207V417Q476 276 489 247T548 218Q593 218 607 252T621 405V1207Z"/><glyph unicode="1" horiz-adv-x="780" d="M695 1619V0H291V868Q291 1056 282 1094T233 1151T52 1171H12V1360Q305 1423 457 1619H695Z"/><glyph unicode="2" horiz-adv-x="1028" d="M943 276V0H54V231Q449 877 523 1030T598 1270Q598 1336 576 1368T507 1401Q461 1401 439 1365T416 1222V1068H54V1127Q54 1263 68 1341T137 1496T280 1611T491 1650Q732 1650 855 1531T979 1228Q979 1089 910 934T500 276H943Z"/><glyph unicode="3" horiz-adv-x="1086" d="M831 917Q923 886 968 816T1013 485Q1013 292 969 186T817 24T540 -32Q348 -32 239 32T95 190T60 515V643H464V380Q464 275 476 247T532 218Q579 218 594 254T609 442V554Q609 647 588 690T526 746T367 762V997Q511 997 545 1008T594 1056T609 1172V1262Q609 1347 592 1374T537 1401Q495 1401 480 1373T464 1251V1118H60V1256Q60 1488 166 1569T503 1651Q792 1651 895 1538T998 1224Q998 1088 961 1028T831 917Z"/><glyph unicode="4" horiz-adv-x="1023" d="M896 1619V561H1011V285H896V0H492V285H12V561L361 1619H896ZM492 561V1250L314 561H492Z"/><glyph unicode="5" horiz-adv-x="1099" d="M954 1619V1360H453V1085Q547 1196 695 1196Q862 1196 947 1103T1033 743V512Q1033 340 1017 260T946 111T796 6T560 -31Q404 -31 285 23T116 186T66 520V608H470V507Q470 350 481 284T557 218Q587 218 605 237T625 278T629 469V790Q629 881 610 914T547 947Q519 947 500 930T476 894T470 803H70L87 1619H954Z"/><glyph unicode="6" horiz-adv-x="1109" d="M1042 1189H638Q638 1302 636 1331T612 1381T553 1401Q522 1401 502 1382T479 1333T476 1212V954Q507 1019 567 1051T715 1084Q826 1084 911 1024T1019 880T1042 653V524Q1042 354 1029 271T960 118T805 8T575 -31Q412 -31 308 14T148 143T82 321T72 682V906Q72 1195 80 1292T150 1477T316 1607T560 1651Q730 1651 839 1596T995 1441T1042 1189ZM638 684Q638 770 619 802T557 834Q515 834 496 804T476 684V391Q476 284 494 251T556 218Q582 218 610 243T638 381V684Z"/><glyph unicode="7" horiz-adv-x="802" d="M784 1619V1266L526 0H124L411 1328H12V1619H784Z"/><glyph unicode="8" horiz-adv-x="1095" d="M843 918Q932 882 980 811T1028 470Q1028 274 990 181T842 29T547 -31Q367 -31 262 26T112 177T66 490Q66 637 88 745T230 918Q155 954 118 1032T80 1232Q80 1441 196 1545T543 1650Q810 1650 912 1539T1014 1222Q1014 1091 981 1033T843 918ZM616 1266Q616 1348 602 1374T546 1401Q506 1401 492 1373T478 1266V1143Q478 1070 494 1042T548 1014Q588 1014 602 1041T616 1155V1266ZM624 593Q624 686 605 716T545 747Q505 747 488 718T470 593V383Q470 278 489 248T551 218Q594 218 609 248T624 386V593Z"/><glyph unicode="9" horiz-adv-x="1109" d="M72 430H476Q476 317 479 288T503 238T562 218Q593 218 613 237T635 286T638 407V665Q608 600 548 568T399 535Q288 535 203 595T95 739T72 966V1095Q72 1265 85 1348T155 1501T310 1611T540 1650Q702 1650 806 1605T967 1476T1033 1298T1042 938V713Q1042 424 1034 327T965 142T798 12T555 -32Q384 -32 276 23T120 178T72 430ZM476 935Q476 833 502 809T557 785Q599 785 618 815T638 935V1228Q638 1335 620 1368T558 1401Q532 1401 504 1376T476 1238V935Z"/><glyph unicode=":" horiz-adv-x="414" d="M377 1054V725H72V1054H377ZM377 330V0H72V330H377Z"/><glyph unicode=";" horiz-adv-x="414" d="M377 1054V725H72V1054H377ZM360 317V172Q360 58 333 -15T240 -139T89 -207V-91Q149 -57 157 0H89V317H360Z"/><glyph unicode="&lt;" horiz-adv-x="1092" d="M1027 324L65 725V928L1027 1330V1066L433 827L1027 589V324Z"/><glyph unicode="=" horiz-adv-x="1092" d="M65 1122H1027V878H65V1122ZM65 740H1027V496H65V740Z"/><glyph unicode="&gt;" horiz-adv-x="1092" d="M65 1330L1027 930V726L65 324V588L659 827L65 1065V1330Z"/><glyph unicode="?" horiz-adv-x="1075" d="M488 1097H84Q86 1310 120 1408T267 1579T557 1653Q684 1653 779 1613T930 1502T1012 1347T1038 1087V889Q1038 754 1013 672T904 528T707 466Q560 466 488 581V407H111V852H479Q481 760 545 760Q595 760 608 800T622 999V1268Q622 1357 610 1387T560 1418Q514 1418 501 1378T488 1195V1097ZM488 324V0H111V324H488Z"/><glyph unicode="@" horiz-adv-x="1587" d="M1193 1308L1066 516Q1062 490 1062 481Q1062 442 1099 442Q1159 442 1229 499T1352 670T1405 934Q1405 1189 1252 1346T849 1504Q560 1504 372 1305T184 772Q184 451 367 263T835 74Q975 74 1101 121T1340 261H1550Q1420 95 1228 10T836 -75Q495 -75 266 155T36 763Q36 1137 250 1395T845 1653Q1072 1653 1216 1566T1456 1322T1553 934Q1553 627 1382 451T1039 274Q910 274 882 390Q814 324 765 299T646 273Q497 273 407 389T317 699Q317 949 442 1143T748 1338Q820 1338 878 1302T979 1194L995 1308H1193ZM525 642Q525 548 565 483T672 418Q737 418 786 469T878 678T920 981Q920 1071 882 1126T779 1182Q657 1182 591 1011T525 642Z"/><glyph unicode="A" horiz-adv-x="1040" d="M811 1619L1052 0H621L600 291H449L424 0H-12L202 1619H811ZM588 578Q556 853 524 1257Q460 793 444 578H588Z"/><glyph unicode="B" horiz-adv-x="1131" d="M84 1619H504Q703 1619 805 1588T971 1463T1034 1158Q1034 1016 990 960T814 874Q960 841 1012 765T1064 530V380Q1064 216 1027 137T907 29T571 0H84V1619ZM505 1342V982Q532 983 547 983Q609 983 626 1013T643 1188Q643 1264 629 1294T593 1333T505 1342ZM505 730V277Q594 280 618 305T643 428V579Q643 683 621 705T505 730Z"/><glyph unicode="C" horiz-adv-x="1134" d="M1067 913H646V1195Q646 1318 633 1348T573 1379Q521 1379 507 1342T493 1182V430Q493 312 507 276T570 240Q617 240 631 276T646 445V648H1067V585Q1067 334 1032 229T875 45T575 -34Q390 -34 270 33T111 218T72 575V1048Q72 1223 84 1310T155 1479T320 1606T563 1653Q749 1653 870 1581T1029 1402T1067 1067V913Z"/><glyph unicode="D" horiz-adv-x="1132" d="M84 1619H399Q704 1619 811 1591T975 1499T1045 1357T1059 1048V481Q1059 263 1039 190T967 75T841 17T615 0H84V1619ZM505 1342V277Q596 277 617 313T638 512V1141Q638 1251 631 1282T599 1327T505 1342Z"/><glyph unicode="E" horiz-adv-x="851" d="M84 1619H786V1295H505V988H768V680H505V324H814V0H84V1619Z"/><glyph unicode="F" horiz-adv-x="815" d="M84 1619H797V1295H505V988H765V680H505V0H84V1619Z"/><glyph unicode="G" horiz-adv-x="1129" d="M1050 1023H629V1170Q629 1309 617 1344T560 1379Q521 1379 507 1349T493 1195V418Q493 309 507 275T563 240Q609 240 625 279T642 431V623H557V869H1050V0H785L746 116Q703 41 638 4T483 -34Q377 -34 285 17T144 145T84 304T72 555V1036Q72 1268 97 1373T240 1565T547 1653Q732 1653 854 1577T1013 1397T1050 1093V1023Z"/><glyph unicode="H" horiz-adv-x="1137" d="M1052 1619V0H631V680H505V0H84V1619H505V1040H631V1619H1052Z"/><glyph unicode="I" horiz-adv-x="590" d="M505 1619V0H84V1619H505Z"/><glyph unicode="J" horiz-adv-x="678" d="M599 1619V537Q599 294 594 225T549 99T439 22T229 0H18V283Q56 280 73 280Q118 280 144 302T174 356T178 480V1619H599Z"/><glyph unicode="K" horiz-adv-x="1099" d="M1087 1619L846 888L1110 0H675L505 694V0H84V1619H505V990L692 1619H1087Z"/><glyph unicode="L" horiz-adv-x="779" d="M505 1619V324H761V0H84V1619H505Z"/><glyph unicode="M" horiz-adv-x="1468" d="M1383 1619V0H1015V1093L868 0H607L452 1068V0H84V1619H629Q653 1473 680 1275L738 863L834 1619H1383Z"/><glyph unicode="N" horiz-adv-x="1109" d="M1024 1619V0H655L436 736V0H84V1619H436L672 890V1619H1024Z"/><glyph unicode="O" horiz-adv-x="1119" d="M1046 671Q1046 427 1035 326T963 140T799 11T559 -34Q429 -34 326 8T159 136T84 321T72 671V948Q72 1192 83 1293T155 1479T319 1608T559 1653Q689 1653 792 1611T959 1483T1034 1298T1046 948V671ZM625 1203Q625 1316 613 1347T561 1379Q528 1379 511 1354T493 1203V447Q493 306 504 273T558 240Q601 240 613 278T625 459V1203Z"/><glyph unicode="P" horiz-adv-x="1028" d="M84 1619H508Q680 1619 772 1592T911 1514T974 1391T991 1166V1025Q991 870 959 799T842 690T618 652H505V0H84V1619ZM505 1342V930Q523 929 536 929Q594 929 616 957T639 1076V1209Q639 1292 613 1317T505 1342Z"/><glyph unicode="Q" horiz-adv-x="1119" d="M1047 0V-196H729Q614 -196 567 -179T504 -126T487 0Q344 4 241 75T105 255T72 583V1084Q72 1249 91 1335T172 1498T329 1614T542 1653Q683 1653 793 1605T958 1483T1029 1330T1046 1093V567Q1046 351 1025 274T945 152T786 82Q789 28 808 14T901 0H1047ZM625 1203Q625 1316 613 1347T561 1379Q528 1379 511 1354T493 1203V447Q493 306 504 273T558 240Q601 240 613 278T625 459V1203Z"/><glyph unicode="R" horiz-adv-x="1103" d="M84 1619H382Q680 1619 785 1596T957 1479T1024 1177Q1024 988 977 923T792 845Q917 814 960 762T1013 667T1024 427V0H633V538Q633 668 613 699T505 730V0H84V1619ZM505 1342V982Q576 982 604 1001T633 1128V1217Q633 1294 606 1318T505 1342Z"/><glyph unicode="S" horiz-adv-x="1059" d="M976 1129H585V1249Q585 1333 570 1356T520 1379Q482 1379 463 1348T443 1254Q443 1173 465 1132Q486 1091 584 1033Q865 866 938 759Q1011 652 1011 414Q1011 241 971 159T814 22T544 -34Q375 -34 256 30T99 193T62 474V580H453V383Q453 292 469 266T528 240Q570 240 590 273T611 371Q611 514 572 558Q532 602 375 705Q218 809 167 856T83 986T49 1198Q49 1384 96 1470T250 1604T506 1653Q670 1653 785 1600T938 1467T976 1193V1129Z"/><glyph unicode="T" horiz-adv-x="944" d="M932 1619V1295H682V0H261V1295H12V1619H932Z"/><glyph unicode="U" horiz-adv-x="1120" d="M1041 1619V537Q1041 353 1029 279T958 126T803 7T575 -34Q430 -34 319 14T153 139T88 301T78 661V1619H499V405Q499 299 510 270T557 240Q597 240 608 272T620 426V1619H1041Z"/><glyph unicode="V" horiz-adv-x="1072" d="M1084 1619L870 0H231L-12 1619H432Q509 950 542 488Q575 955 611 1318L640 1619H1084Z"/><glyph unicode="W" horiz-adv-x="1668" d="M1668 1619L1481 0H955Q883 373 828 848Q803 645 711 0H188L0 1619H409L452 1054L496 509Q519 932 612 1619H1050Q1059 1548 1096 1085L1142 470Q1177 1057 1259 1619H1668Z"/><glyph unicode="X" horiz-adv-x="988" d="M937 1619L790 903L1012 0H622Q552 242 494 589Q478 436 450 264L410 0H0L152 903L0 1619H407Q418 1552 451 1396Q477 1277 494 1178L584 1619H937Z"/><glyph unicode="Y" horiz-adv-x="969" d="M981 1619L674 586V0H284V586L-12 1619H375Q466 1146 477 982Q512 1241 594 1619H981Z"/><glyph unicode="Z" horiz-adv-x="813" d="M788 1619V1295L474 324H788V0H12V235L336 1295H50V1619H788Z"/><glyph unicode="[" horiz-adv-x="578" d="M541 1619V1370H450V249H541V0H84V1619H541Z"/><glyph unicode="\" horiz-adv-x="810" d="M12 1650H315L798 -31H493L12 1650Z"/><glyph unicode="]" horiz-adv-x="578" d="M36 0V249H127V1370H36V1619H493V0H36Z"/><glyph unicode="^" horiz-adv-x="990" d="M12 820L388 1619H611L977 820H693L495 1309L298 820H12Z"/><glyph unicode="_" horiz-adv-x="1131" d="M-12 -154H1143V-256H-12V-154Z"/><glyph unicode="`" horiz-adv-x="683" d="M0 1772H356L532 1501H329L0 1772Z"/><glyph unicode="a" horiz-adv-x="1032" d="M433 813H54V902Q54 1056 89 1139T232 1287T510 1351Q715 1351 819 1279T944 1101T965 666V0H572V118Q535 47 477 12T337 -24Q231 -24 143 35T54 296V405Q54 554 101 608T334 734Q533 812 547 839T561 949Q561 1053 546 1084T494 1116Q453 1116 443 1090T433 952V813ZM561 631Q464 560 449 512T433 374Q433 271 446 241T500 211Q538 211 549 234T561 358V631Z"/><glyph unicode="b" horiz-adv-x="1064" d="M476 1619V1236Q526 1294 587 1322T721 1351Q804 1351 865 1325T958 1252T996 1160T1003 968V370Q1003 224 984 153T892 29T721 -24Q650 -24 589 7T476 100L450 0H72V1619H476ZM599 950Q599 1053 586 1084T535 1116Q498 1116 487 1089T476 950V378Q476 271 488 241T538 211Q576 211 587 242T599 391V950Z"/><glyph unicode="c" horiz-adv-x="1013" d="M965 826H584V979Q584 1059 571 1087T523 1116Q488 1116 476 1091T464 979V353Q464 282 482 247T535 211Q576 211 590 248T605 388V546H965Q964 387 954 308T887 145T739 19T514 -24Q343 -24 243 34T102 198T60 498V875Q60 1044 94 1130T239 1283T509 1351Q667 1351 779 1284T928 1115T965 826Z"/><glyph unicode="d" horiz-adv-x="1064" d="M991 1619V0H587V96Q529 36 465 6T331 -24Q237 -24 168 25T80 140T60 352V973Q60 1126 79 1190T169 1302T336 1351Q411 1351 473 1324T587 1243V1619H991ZM587 993Q587 1066 575 1091T525 1116Q489 1116 477 1094T464 993V343Q464 262 476 237T522 211Q561 211 574 239T587 379V993Z"/><glyph unicode="e" horiz-adv-x="1047" d="M987 640H464V353Q464 263 477 237T527 211Q573 211 588 245T604 379V554H987V456Q987 333 972 267T899 126T755 14T535 -24Q407 -24 309 13T157 114T81 256T60 482V869Q60 1043 107 1143T261 1297T507 1351Q677 1351 787 1287T942 1116T987 816V640ZM582 856V953Q582 1056 571 1086T526 1116Q484 1116 474 1091T464 953V856H582Z"/><glyph unicode="f" horiz-adv-x="592" d="M587 1619V1414Q462 1414 440 1403T417 1337V1295H587V1085H491V0H87V1085H4V1295H87Q87 1426 96 1470T140 1548T240 1601T439 1619H587Z"/><glyph unicode="g" horiz-adv-x="1062" d="M990 1327V305Q990 98 981 38T913 -90T752 -193T491 -229Q298 -229 181 -164T60 94H452Q452 6 516 6Q562 6 577 33T592 146V246Q540 199 483 175T362 151Q253 151 183 195T86 310T60 514V996Q60 1185 128 1268T335 1351Q411 1351 473 1320T585 1227L614 1327H990ZM585 975Q585 1066 575 1091T528 1116Q493 1116 479 1088T464 975V529Q464 440 475 414T521 387Q561 387 573 419T585 564V975Z"/><glyph unicode="h" horiz-adv-x="1073" d="M476 1619V1255Q528 1303 588 1327T718 1351Q824 1351 898 1297T989 1173T1006 915V0H602V934Q602 1050 591 1083T539 1116Q502 1116 489 1082T476 947V0H72V1619H476Z"/><glyph unicode="i" horiz-adv-x="561" d="M488 1619V1408H72V1619H488ZM488 1327V0H72V1327H488Z"/><glyph unicode="j" horiz-adv-x="573" d="M500 1619V1408H84V1619H500ZM500 1327V277Q500 92 493 27T447 -88T344 -162T150 -186H-6V26Q66 26 75 42T84 242V1327H500Z"/><glyph unicode="k" horiz-adv-x="979" d="M942 1327L778 798L991 0H602L476 578V0H72V1619H476V939L602 1327H942Z"/><glyph unicode="l" horiz-adv-x="561" d="M488 1619V0H72V1619H488Z"/><glyph unicode="m" horiz-adv-x="1579" d="M471 1327L464 1201Q511 1276 576 1313T724 1351Q886 1351 979 1201Q1030 1276 1094 1313T1236 1351Q1339 1351 1406 1301T1493 1179T1512 943V0H1120V865Q1120 1035 1109 1075T1055 1116Q1012 1116 1000 1076T987 865V0H595V843Q595 1038 586 1077T533 1116Q506 1116 487 1096T466 1046T464 920V0H72V1327H471Z"/><glyph unicode="n" horiz-adv-x="1071" d="M483 1327L476 1205Q520 1278 583 1314T730 1351Q834 1351 900 1302T985 1179T1004 930V0H600V919Q600 1056 591 1086T541 1116Q498 1116 487 1082T476 897V0H72V1327H483Z"/><glyph unicode="o" horiz-adv-x="1047" d="M986 861V536Q986 357 968 274T891 118T740 11T527 -24Q393 -24 300 5T156 94T82 238T60 492V832Q60 1017 100 1121T244 1288T510 1351Q646 1351 743 1311T894 1205T966 1071T986 861ZM582 961Q582 1063 571 1089T524 1116Q488 1116 476 1090T464 961V362Q464 268 476 240T523 211Q559 211 570 237T582 349V961Z"/><glyph unicode="p" horiz-adv-x="1063" d="M483 1327L476 1210Q530 1281 595 1316T737 1351Q831 1351 899 1301T985 1184T1002 960V401Q1002 220 981 144T893 22T732 -24Q657 -24 593 11T476 115V-189H72V1327H483ZM598 941Q598 1064 589 1090T539 1116Q499 1116 488 1086T476 941V391Q476 271 488 241T540 211Q579 211 588 238T598 372V941Z"/><glyph unicode="q" horiz-adv-x="1061" d="M988 1327V-189H584V107Q525 21 476 -1T353 -24Q247 -24 178 26T84 155T60 399V984Q60 1119 78 1185T164 1301T327 1351Q403 1351 467 1317T584 1214L591 1327H988ZM584 966Q584 1054 571 1085T522 1116Q488 1116 476 1089T464 966V375Q464 268 476 240T525 211Q560 211 572 240T584 369V966Z"/><glyph unicode="r" horiz-adv-x="733" d="M476 1327L460 1153Q548 1340 715 1351V884Q604 884 552 854T488 771T476 524V0H72V1327H476Z"/><glyph unicode="s" horiz-adv-x="964" d="M897 903H539V975Q539 1067 529 1091T476 1116Q442 1116 425 1094T408 1026Q408 965 416 937T467 874T642 775Q818 689 873 613Q928 537 928 392Q928 230 886 148T746 21T508 -24Q354 -24 245 24T94 154T53 402V466H411V382Q411 275 424 243T478 211Q521 211 538 232T555 323Q555 418 533 442Q510 466 298 584Q120 684 81 765T42 959Q42 1118 84 1193T226 1310T460 1351Q592 1351 684 1318T826 1229T886 1127T897 980V903Z"/><glyph unicode="t" horiz-adv-x="624" d="M498 1504V1295H607V1085H498V375Q498 244 511 229T624 214V0H461Q323 0 264 11T160 64T104 159T93 411V1085H6V1295H93V1504H498Z"/><glyph unicode="u" horiz-adv-x="1070" d="M997 1327V0H586L593 110Q551 43 490 10T348 -24Q257 -24 197 8T109 93T73 203T66 432V1327H470V424Q470 269 479 240T531 211Q576 211 584 241T593 434V1327H997Z"/><glyph unicode="v" horiz-adv-x="895" d="M907 1327L718 0H191L-12 1327H349L462 359Q475 465 506 879Q524 1110 546 1327H907Z"/><glyph unicode="w" horiz-adv-x="1371" d="M1377 1327L1216 0H777Q741 243 694 640Q678 466 649 288L604 0H165L-6 1327H342Q346 1275 430 568Q436 640 520 1327H855L937 568Q956 900 1029 1327H1377Z"/><glyph unicode="x" horiz-adv-x="888" d="M872 1327L711 693L906 0H513Q455 262 425 451Q385 215 338 0H0L174 693L0 1327H338Q419 921 425 866Q483 1205 513 1327H872Z"/><glyph unicode="y" horiz-adv-x="918" d="M918 1327L802 367Q775 139 757 56T695 -81T576 -160T331 -186H86V26Q180 26 207 35T234 78Q234 94 209 217L-12 1327H355L487 432L551 1327H918Z"/><glyph unicode="z" horiz-adv-x="719" d="M701 1327V1033L403 266H701V0H12V278L317 1061H43V1327H701Z"/><glyph unicode="{" horiz-adv-x="757" d="M36 538V778Q145 779 200 842T255 1128Q255 1297 267 1378T328 1515T452 1594T667 1619H720V1380Q575 1380 547 1350T516 1233Q510 993 501 921T457 784T328 658Q417 604 457 529T505 313L520 22Q529 -20 563 -41T719 -63V-303H667Q507 -303 420 -267T294 -147T255 121Q255 325 241 382T187 486T36 538Z"/><glyph unicode="|" horiz-adv-x="555" d="M169 1619H386V-265H169V1619Z"/><glyph unicode="}" horiz-adv-x="757" d="M720 538Q611 537 556 473T501 189Q501 19 489 -62T429 -199T305 -278T90 -303H37V-63Q176 -63 207 -34T241 84Q247 340 259 412T309 548T428 658Q342 714 308 768T262 885T244 1121T230 1319T192 1362T36 1380V1619H89Q249 1619 336 1583T462 1463T501 1195Q501 983 516 928T571 828T720 778V538Z"/><glyph unicode="~" horiz-adv-x="1075" d="M1018 787Q860 656 734 656Q648 656 478 738Q381 785 336 785Q227 785 57 623V900Q204 1028 346 1028Q431 1028 578 958Q697 901 747 901Q793 901 845 927T1018 1062V787Z"/><glyph unicode=" " horiz-adv-x="361"/><glyph unicode="¡" horiz-adv-x="553" d="M69 1100V1424H447V1100H69ZM36 -195L102 1024H414L480 -195H36Z"/><glyph unicode="¢" horiz-adv-x="1059" d="M1004 922H600V1057Q600 1173 588 1203T532 1234Q491 1234 478 1208T464 1071V450Q464 341 477 311T530 280Q580 280 598 321T617 494V640H1004Q1005 595 1005 574Q1005 335 916 208T629 38V-127H443V38Q311 56 210 136T85 304T60 589V887Q60 1089 85 1187T205 1365T443 1475V1612H629V1475Q727 1457 807 1408T934 1290T992 1154T1004 922Z"/><glyph unicode="£" horiz-adv-x="1096" d="M999 1098H637V1245Q637 1343 634 1369T610 1416T558 1437Q518 1437 492 1403T466 1326Q466 1271 510 1119Q557 953 558 921H813V645H582Q579 373 388 236Q406 238 433 242Q463 247 487 247Q520 247 579 237Q602 233 620 233Q660 233 685 258Q709 283 709 390Q709 406 708 454H1048L1047 325Q1047 180 1026 117T932 11T748 -31Q678 -31 543 3Q412 37 317 37Q167 37 72 -31V205Q115 234 142 278T193 424T216 601Q216 617 215 645H72V921H171Q87 1081 87 1227Q87 1436 216 1543T544 1650Q757 1650 883 1538T1009 1230Q1009 1177 999 1098Z"/><glyph unicode="¤" horiz-adv-x="1123" d="M814 1061L946 1194L1086 1052L955 919Q1028 798 1028 670Q1028 535 955 416L1086 286L946 145L814 274Q755 237 691 219T559 200Q494 200 432 218T309 274L179 145L36 286L168 416Q94 535 94 670Q94 796 168 919L36 1052L176 1194L309 1061Q371 1098 433 1116T560 1135Q624 1135 687 1117T814 1061ZM293 674Q293 555 373 478T561 400Q672 400 750 478T829 667Q829 778 751 856T561 935Q446 935 370 854T293 674Z"/><glyph unicode="¥" horiz-adv-x="969" d="M792 982H966V810H741L674 586H966V415H674V0H284V415H2V586H284L220 810H2V982H170L-12 1619H375Q466 1146 477 982Q512 1241 594 1619H981L792 982Z"/><glyph unicode="¦" horiz-adv-x="555" d="M169 1619H386V804H169V1619ZM169 550H386V-265H169V550Z"/><glyph unicode="§" horiz-adv-x="991" d="M877 1273H558V1298Q558 1348 538 1373T475 1398Q445 1398 430 1384T415 1339Q415 1308 446 1272Q476 1236 607 1141Q842 971 898 894T955 729Q955 545 738 444Q824 355 867 275T910 121Q910 -13 800 -121T493 -229Q326 -229 221 -139T113 146H433Q433 17 512 17Q544 17 559 33T575 83Q575 119 544 154Q513 188 436 244Q208 407 122 497T36 694Q36 859 252 983Q168 1059 126 1139T83 1303Q83 1434 185 1543T492 1653Q654 1653 765 1570T877 1273ZM382 869Q347 833 347 794Q347 765 372 739T501 638Q572 586 609 558Q644 590 644 633Q644 663 610 697T469 806Q424 838 382 869Z"/><glyph unicode="¨" horiz-adv-x="683" d="M254 1761V1501H-7V1761H254ZM691 1761V1501H430V1761H691Z"/><glyph unicode="©" horiz-adv-x="1605" d="M782 1532Q1130 1532 1349 1302T1568 766Q1568 450 1343 225T802 0Q484 0 260 224T36 766Q36 984 149 1167T441 1441T782 1532ZM818 1381Q542 1381 365 1198T187 766Q187 513 367 332T802 151Q1056 151 1236 332T1417 766Q1417 1030 1231 1205T818 1381ZM988 653L1149 598Q1068 338 810 338Q635 338 531 453T426 762Q426 961 532 1075T806 1190Q1062 1190 1149 947L987 909Q935 1048 809 1048Q709 1048 656 973T602 773Q602 634 653 558T799 481Q934 481 988 653Z"/><glyph unicode="ª" horiz-adv-x="665" d="M282 1362H36Q36 1461 58 1512T149 1605T330 1646Q462 1646 529 1604T612 1498T628 1228V834H373V903Q348 859 310 837T221 815Q129 815 83 864T36 1013V1078Q36 1174 69 1207T252 1294Q357 1332 361 1349T366 1393Q366 1458 357 1475T321 1492Q294 1492 288 1479T282 1400V1362ZM366 1209Q310 1168 297 1148T283 1062Q283 1009 291 993T326 977Q352 977 359 990T366 1059V1209Z"/><glyph unicode="«" horiz-adv-x="760" d="M120 1238H357L273 695L357 124H120L36 695L120 1238ZM487 1238H724L639 695L724 124H487L402 695L487 1238Z"/><glyph unicode="¬" horiz-adv-x="1092" d="M64 1126H1028V492H784V881H64V1126Z"/><glyph unicode="­" horiz-adv-x="603" d="M567 803V524H36V803H567Z"/><glyph unicode="®" horiz-adv-x="1605" d="M782 1532Q1125 1532 1346 1304T1568 766Q1568 450 1343 225T802 0Q484 0 260 224T36 766Q36 989 154 1175T451 1447T782 1532ZM820 1383Q538 1383 363 1197T188 766Q188 512 369 331T804 150Q1057 150 1238 331T1419 766Q1419 941 1328 1088T1094 1309T820 1383ZM465 357V1170H850Q993 1170 1058 1104T1123 940Q1123 846 1069 789T904 712Q954 693 983 661T1077 520L1172 357H969L901 488Q840 605 794 647T672 690H629V357H465ZM629 819H763Q864 819 906 845T949 932Q949 986 907 1013T780 1040H629V819Z"/><glyph unicode="¯" horiz-adv-x="1131" d="M-12 1792H1143V1690H-12V1792Z"/><glyph unicode="°" horiz-adv-x="711" d="M36 1314Q36 1456 131 1548T355 1641Q488 1641 581 1548T674 1322Q674 1190 581 1097T356 1003Q215 1003 126 1100T36 1314ZM202 1326Q202 1258 247 1214T355 1169Q418 1169 463 1214T508 1322Q508 1385 463 1430T355 1475Q289 1475 246 1428T202 1326Z"/><glyph unicode="±" horiz-adv-x="1092" d="M667 543H423V898H64V1142H423V1502H667V1142H1028V898H667V543ZM64 423H1028V179H64V423Z"/><glyph unicode="²" horiz-adv-x="651" d="M592 938V783H36V911Q286 1255 329 1330T373 1448Q373 1508 320 1508Q291 1508 278 1492T265 1422V1336H36V1373Q36 1461 55 1515T138 1610T309 1650Q459 1650 536 1587T614 1425Q614 1350 572 1272T394 1026L325 938H592Z"/><glyph unicode="³" horiz-adv-x="668" d="M532 1263Q577 1249 604 1210T632 1041Q632 871 550 819T336 766Q215 766 147 801T57 887T36 1057V1113H291V986Q291 933 298 921T331 908Q360 908 368 925T377 1019V1073Q377 1140 350 1157T226 1175V1309Q334 1309 355 1322T377 1394V1442Q377 1486 366 1497T334 1508Q309 1508 300 1496T291 1436V1377H36V1439Q36 1564 101 1607T313 1650Q490 1650 556 1591T622 1421Q622 1374 606 1332T532 1263Z"/><glyph unicode="´" horiz-adv-x="683" d="M683 1772L354 1501H151L327 1772H683Z"/><glyph unicode="µ" horiz-adv-x="965" d="M72 1327H396V370Q396 229 474 229Q571 229 571 461V1327H892V0H586V123Q525 -19 396 -21V-407H72V1327Z"/><glyph unicode="¶" horiz-adv-x="1180" d="M673 -221H430V797Q36 841 36 1200Q36 1317 81 1406T202 1546T349 1607T570 1619H1167V1358H1054V-221H817V1358H673V-221Z"/><glyph unicode="·" horiz-adv-x="683" d="M341 844Q400 844 444 802T488 698Q488 637 445 594T341 551Q281 551 238 594T195 698Q195 759 238 801T341 844Z"/><glyph unicode="¸" horiz-adv-x="683" d="M378 12V-112Q430 -112 476 -147T522 -244Q522 -320 460 -376T312 -432Q156 -432 113 -274H261Q275 -315 311 -315Q341 -315 355 -300T370 -255Q370 -222 350 -206T287 -189Q278 -189 261 -190V12H378Z"/><glyph unicode="¹" horiz-adv-x="501" d="M440 1636V783H185V1240Q185 1338 180 1355T150 1381T40 1391H12V1501Q195 1534 290 1636H440Z"/><glyph unicode="º" horiz-adv-x="675" d="M638 1345V1157Q638 1032 616 966T524 858T336 815Q211 815 149 850T61 949T36 1131V1328Q36 1512 116 1579T328 1646Q442 1646 513 1606T611 1507T638 1345ZM375 1405Q375 1465 369 1478T337 1492Q312 1492 306 1478T299 1405V1052Q299 997 306 983T334 968Q362 968 368 981T375 1044V1405Z"/><glyph unicode="»" horiz-adv-x="760" d="M639 1238L724 695L639 124H402L487 695L402 1238H639ZM273 1238L357 695L273 124H36L120 695L36 1238H273Z"/><glyph unicode="¼" horiz-adv-x="1277" d="M1001 1650L368 -31H214L849 1650H1001ZM440 1636V783H185V1240Q185 1338 180 1355T150 1381T40 1391H12V1501Q195 1534 290 1636H440ZM1182 854V304H1253V148H1182V0H926V148H629V299L847 854H1182ZM926 304V639L800 304H926Z"/><glyph unicode="½" horiz-adv-x="1321" d="M1001 1650L368 -31H214L849 1650H1001ZM440 1636V783H185V1240Q185 1338 180 1355T150 1381T40 1391H12V1501Q195 1534 290 1636H440ZM1262 155V0H706V128Q956 472 999 547T1043 666Q1043 726 989 726Q961 726 948 710T935 639V554H706V590Q706 678 725 733T808 828T979 868Q1129 868 1206 805T1284 642Q1284 569 1241 489T1064 243L995 155H1262Z"/><glyph unicode="¾" horiz-adv-x="1416" d="M532 1263Q577 1249 604 1210T632 1041Q632 871 550 819T336 766Q215 766 147 801T57 887T36 1057V1113H291V986Q291 933 298 921T331 908Q360 908 368 925T377 1019V1073Q377 1140 350 1157T226 1175V1309Q334 1309 355 1322T377 1394V1442Q377 1486 366 1497T334 1508Q309 1508 300 1496T291 1436V1377H36V1439Q36 1564 101 1607T313 1650Q490 1650 556 1591T622 1421Q622 1374 606 1332T532 1263ZM1139 1650L507 -31H353L987 1650H1139ZM1320 854V304H1391V148H1320V0H1065V148H767V299L985 854H1320ZM1065 304V639L938 304H1065Z"/><glyph unicode="¿" horiz-adv-x="1075" d="M586 1100V1424H963V1100H586ZM586 327H990Q988 114 954 16T807 -156T517 -229Q390 -229 295 -189T144 -78T62 77T36 336V534Q36 670 61 751T170 895T367 957Q520 957 586 843V1016H963V571H595Q594 664 529 664Q479 664 466 624T452 425V155Q452 67 464 37T514 6Q560 6 573 46T586 229V327Z"/><glyph unicode="À" horiz-adv-x="1040" d="M811 1619L1052 0H621L600 291H449L424 0H-12L202 1619H811ZM588 578Q556 853 524 1257Q460 793 444 578H588ZM152 1941H508L684 1670H481L152 1941Z"/><glyph unicode="Á" horiz-adv-x="1040" d="M811 1619L1052 0H621L600 291H449L424 0H-12L202 1619H811ZM588 578Q556 853 524 1257Q460 793 444 578H588ZM862 1941L533 1670H330L506 1941H862Z"/><glyph unicode="Â" horiz-adv-x="1040" d="M811 1619L1052 0H621L600 291H449L424 0H-12L202 1619H811ZM588 578Q556 853 524 1257Q460 793 444 578H588ZM510 1801L392 1670H112L369 1952H651L892 1670H621L510 1801Z"/><glyph unicode="Ã" horiz-adv-x="1040" d="M811 1619L1052 0H621L600 291H449L424 0H-12L202 1619H811ZM588 578Q556 853 524 1257Q460 793 444 578H588ZM929 1860Q883 1759 816 1719T698 1679Q627 1679 545 1712L471 1741Q400 1770 365 1770Q291 1770 243 1670L85 1775Q195 1969 333 1969Q405 1969 490 1937L552 1914Q630 1885 658 1885Q741 1885 768 1975L929 1860Z"/><glyph unicode="Ä" horiz-adv-x="1040" d="M811 1619L1052 0H621L600 291H449L424 0H-12L202 1619H811ZM588 578Q556 853 524 1257Q460 793 444 578H588ZM419 1930V1670H158V1930H419ZM856 1930V1670H595V1930H856Z"/><glyph unicode="Å" horiz-adv-x="1040" d="M811 1619L1052 0H621L600 291H449L424 0H-12L202 1619H811ZM588 578Q556 853 524 1257Q460 793 444 578H588ZM507 2066Q591 2066 654 2006T717 1855Q717 1768 655 1707T507 1645Q419 1645 358 1706T296 1855Q296 1942 358 2004T507 2066ZM505 1934Q472 1934 448 1910T423 1851Q423 1817 447 1793T505 1769Q539 1769 563 1793T588 1851Q588 1886 564 1910T505 1934Z"/><glyph unicode="Æ" horiz-adv-x="1461" d="M1404 1619V1295H1121V988H1387V680H1121V324H1424V0H700V291H458L390 0H-12L414 1619H1404ZM700 1316L521 578H700V1316Z"/><glyph unicode="Ç" horiz-adv-x="1134" d="M606 -33V-52Q660 -52 705 -87T750 -184Q750 -260 688 -315T540 -371Q384 -371 341 -213H489Q503 -255 539 -255Q569 -255 583 -240T598 -195Q598 -162 578 -146T515 -129H489V-29Q318 -13 223 64T100 253T72 575V1048Q72 1223 84 1310T155 1479T320 1606T563 1653Q749 1653 870 1581T1029 1402T1067 1067V913H646V1195Q646 1318 633 1348T573 1379Q521 1379 507 1342T493 1182V430Q493 312 507 276T570 240Q617 240 631 276T646 445V648H1067V585Q1067 352 1039 251T901 64T606 -33Z"/><glyph unicode="È" horiz-adv-x="851" d="M84 1619H786V1295H505V988H768V680H505V324H814V0H84V1619ZM84 1941H440L616 1670H413L84 1941Z"/><glyph unicode="É" horiz-adv-x="851" d="M84 1619H786V1295H505V988H768V680H505V324H814V0H84V1619ZM766 1941L437 1670H234L410 1941H766Z"/><glyph unicode="Ê" horiz-adv-x="851" d="M84 1619H786V1295H505V988H768V680H505V324H814V0H84V1619ZM433 1801L315 1670H35L292 1952H574L815 1670H544L433 1801Z"/><glyph unicode="Ë" horiz-adv-x="851" d="M84 1619H786V1295H505V988H768V680H505V324H814V0H84V1619ZM337 1930V1670H76V1930H337ZM774 1930V1670H513V1930H774Z"/><glyph unicode="Ì" horiz-adv-x="590" d="M505 1619V0H84V1619H505ZM-47 1941H309L485 1670H282L-47 1941Z"/><glyph unicode="Í" horiz-adv-x="590" d="M505 1619V0H84V1619H505ZM636 1941L307 1670H104L280 1941H636Z"/><glyph unicode="Î" horiz-adv-x="590" d="M505 1619V0H84V1619H505ZM303 1801L185 1670H-95L162 1952H444L685 1670H414L303 1801Z"/><glyph unicode="Ï" horiz-adv-x="590" d="M505 1619V0H84V1619H505ZM207 1930V1670H-54V1930H207ZM644 1930V1670H383V1930H644Z"/><glyph unicode="Ð" horiz-adv-x="1144" d="M96 810H14V982H96V1619H411Q716 1619 823 1591T987 1499T1057 1357T1071 1048V481Q1071 263 1051 190T979 75T853 17T627 0H96V810ZM517 810V277Q608 277 629 313T650 512V1141Q650 1251 643 1282T612 1327T517 1342V982H583V810H517Z"/><glyph unicode="Ñ" horiz-adv-x="1109" d="M1024 1619V0H655L436 736V0H84V1619H436L672 890V1619H1024ZM976 1860Q930 1759 863 1719T745 1679Q674 1679 592 1712L518 1741Q447 1770 412 1770Q338 1770 290 1670L132 1775Q242 1969 380 1969Q452 1969 537 1937L599 1914Q677 1885 705 1885Q788 1885 815 1975L976 1860Z"/><glyph unicode="Ò" horiz-adv-x="1119" d="M1046 671Q1046 427 1035 326T963 140T799 11T559 -34Q429 -34 326 8T159 136T84 321T72 671V948Q72 1192 83 1293T155 1479T319 1608T559 1653Q689 1653 792 1611T959 1483T1034 1298T1046 948V671ZM625 1203Q625 1316 613 1347T561 1379Q528 1379 511 1354T493 1203V447Q493 306 504 273T558 240Q601 240 613 278T625 459V1203ZM218 1941H574L750 1670H547L218 1941Z"/><glyph unicode="Ó" horiz-adv-x="1119" d="M1046 671Q1046 427 1035 326T963 140T799 11T559 -34Q429 -34 326 8T159 136T84 321T72 671V948Q72 1192 83 1293T155 1479T319 1608T559 1653Q689 1653 792 1611T959 1483T1034 1298T1046 948V671ZM625 1203Q625 1316 613 1347T561 1379Q528 1379 511 1354T493 1203V447Q493 306 504 273T558 240Q601 240 613 278T625 459V1203ZM900 1941L571 1670H368L544 1941H900Z"/><glyph unicode="Ô" horiz-adv-x="1119" d="M1046 671Q1046 427 1035 326T963 140T799 11T559 -34Q429 -34 326 8T159 136T84 321T72 671V948Q72 1192 83 1293T155 1479T319 1608T559 1653Q689 1653 792 1611T959 1483T1034 1298T1046 948V671ZM625 1203Q625 1316 613 1347T561 1379Q528 1379 511 1354T493 1203V447Q493 306 504 273T558 240Q601 240 613 278T625 459V1203ZM567 1801L449 1670H169L426 1952H708L949 1670H678L567 1801Z"/><glyph unicode="Õ" horiz-adv-x="1119" d="M1046 671Q1046 427 1035 326T963 140T799 11T559 -34Q429 -34 326 8T159 136T84 321T72 671V948Q72 1192 83 1293T155 1479T319 1608T559 1653Q689 1653 792 1611T959 1483T1034 1298T1046 948V671ZM625 1203Q625 1316 613 1347T561 1379Q528 1379 511 1354T493 1203V447Q493 306 504 273T558 240Q601 240 613 278T625 459V1203ZM981 1860Q935 1759 868 1719T750 1679Q679 1679 597 1712L523 1741Q452 1770 417 1770Q343 1770 295 1670L137 1775Q247 1969 385 1969Q457 1969 542 1937L604 1914Q682 1885 710 1885Q793 1885 820 1975L981 1860Z"/><glyph unicode="Ö" horiz-adv-x="1119" d="M1046 671Q1046 427 1035 326T963 140T799 11T559 -34Q429 -34 326 8T159 136T84 321T72 671V948Q72 1192 83 1293T155 1479T319 1608T559 1653Q689 1653 792 1611T959 1483T1034 1298T1046 948V671ZM625 1203Q625 1316 613 1347T561 1379Q528 1379 511 1354T493 1203V447Q493 306 504 273T558 240Q601 240 613 278T625 459V1203ZM471 1930V1670H210V1930H471ZM908 1930V1670H647V1930H908Z"/><glyph unicode="×" horiz-adv-x="1092" d="M74 1122L246 1294L546 995L845 1294L1018 1122L719 822L1016 526L844 353L547 650L249 354L77 526L374 822L74 1122Z"/><glyph unicode="Ø" horiz-adv-x="1119" d="M1026 1340Q1046 1264 1046 948V671Q1046 427 1035 326T963 140T799 11T559 -34Q413 -34 310 14T144 157L37 17L-55 87L92 279Q72 351 72 671V948Q72 1192 83 1293T155 1479T319 1608T559 1653Q704 1653 808 1606T974 1462L1081 1602L1173 1533L1026 1340ZM625 987V1203Q625 1316 613 1347T561 1379Q520 1379 507 1346T493 1203V813L625 987ZM493 624V447Q493 306 504 273T558 240Q601 240 613 278T625 459V799L493 624Z"/><glyph unicode="Ù" horiz-adv-x="1120" d="M1041 1619V537Q1041 353 1029 279T958 126T803 7T575 -34Q430 -34 319 14T153 139T88 301T78 661V1619H499V405Q499 299 510 270T557 240Q597 240 608 272T620 426V1619H1041ZM218 1941H574L750 1670H547L218 1941Z"/><glyph unicode="Ú" horiz-adv-x="1120" d="M1041 1619V537Q1041 353 1029 279T958 126T803 7T575 -34Q430 -34 319 14T153 139T88 301T78 661V1619H499V405Q499 299 510 270T557 240Q597 240 608 272T620 426V1619H1041ZM901 1941L572 1670H369L545 1941H901Z"/><glyph unicode="Û" horiz-adv-x="1120" d="M1041 1619V537Q1041 353 1029 279T958 126T803 7T575 -34Q430 -34 319 14T153 139T88 301T78 661V1619H499V405Q499 299 510 270T557 240Q597 240 608 272T620 426V1619H1041ZM568 1801L450 1670H170L427 1952H709L950 1670H679L568 1801Z"/><glyph unicode="Ü" horiz-adv-x="1120" d="M1041 1619V537Q1041 353 1029 279T958 126T803 7T575 -34Q430 -34 319 14T153 139T88 301T78 661V1619H499V405Q499 299 510 270T557 240Q597 240 608 272T620 426V1619H1041ZM472 1930V1670H211V1930H472ZM909 1930V1670H648V1930H909Z"/><glyph unicode="Ý" horiz-adv-x="969" d="M981 1619L674 586V0H284V586L-12 1619H375Q466 1146 477 982Q512 1241 594 1619H981ZM826 1941L497 1670H294L470 1941H826Z"/><glyph unicode="Þ" horiz-adv-x="1028" d="M505 1317Q681 1317 768 1292T908 1213T976 1090T991 864V724Q991 580 963 507T852 392T618 350H505V0H84V1619H505V1317ZM505 1040V628H536Q594 628 616 656T639 775V907Q639 988 613 1014T505 1040Z"/><glyph unicode="ß" horiz-adv-x="1127" d="M902 1023Q974 990 1017 918T1060 632V483Q1060 335 1039 259T955 118T810 26T608 0H531V245H577Q632 245 644 263T656 404V800Q655 869 641 893T577 924V1170Q599 1170 619 1182T639 1264Q639 1341 619 1379T557 1418Q510 1418 493 1384T476 1249V0H72V1081Q72 1316 98 1414T233 1583T535 1653Q774 1653 906 1556T1039 1286Q1039 1129 902 1023Z"/><glyph unicode="à" horiz-adv-x="1032" d="M433 813H54V902Q54 1056 89 1139T232 1287T510 1351Q715 1351 819 1279T944 1101T965 666V0H572V118Q535 47 477 12T337 -24Q231 -24 143 35T54 296V405Q54 554 101 608T334 734Q533 812 547 839T561 949Q561 1053 546 1084T494 1116Q453 1116 443 1090T433 952V813ZM561 631Q464 560 449 512T433 374Q433 271 446 241T500 211Q538 211 549 234T561 358V631ZM174 1687H530L706 1416H503L174 1687Z"/><glyph unicode="á" horiz-adv-x="1032" d="M433 813H54V902Q54 1056 89 1139T232 1287T510 1351Q715 1351 819 1279T944 1101T965 666V0H572V118Q535 47 477 12T337 -24Q231 -24 143 35T54 296V405Q54 554 101 608T334 734Q533 812 547 839T561 949Q561 1053 546 1084T494 1116Q453 1116 443 1090T433 952V813ZM561 631Q464 560 449 512T433 374Q433 271 446 241T500 211Q538 211 549 234T561 358V631ZM857 1687L528 1416H325L501 1687H857Z"/><glyph unicode="â" horiz-adv-x="1032" d="M433 813H54V902Q54 1056 89 1139T232 1287T510 1351Q715 1351 819 1279T944 1101T965 666V0H572V118Q535 47 477 12T337 -24Q231 -24 143 35T54 296V405Q54 554 101 608T334 734Q533 812 547 839T561 949Q561 1053 546 1084T494 1116Q453 1116 443 1090T433 952V813ZM561 631Q464 560 449 512T433 374Q433 271 446 241T500 211Q538 211 549 234T561 358V631ZM524 1547L406 1416H126L383 1698H665L906 1416H635L524 1547Z"/><glyph unicode="ã" horiz-adv-x="1032" d="M433 813H54V902Q54 1056 89 1139T232 1287T510 1351Q715 1351 819 1279T944 1101T965 666V0H572V118Q535 47 477 12T337 -24Q231 -24 143 35T54 296V405Q54 554 101 608T334 734Q533 812 547 839T561 949Q561 1053 546 1084T494 1116Q453 1116 443 1090T433 952V813ZM561 631Q464 560 449 512T433 374Q433 271 446 241T500 211Q538 211 549 234T561 358V631ZM938 1606Q892 1505 825 1465T707 1425Q636 1425 554 1458L480 1487Q409 1516 374 1516Q300 1516 252 1416L94 1521Q204 1715 342 1715Q414 1715 499 1683L561 1660Q639 1631 667 1631Q750 1631 777 1721L938 1606Z"/><glyph unicode="ä" horiz-adv-x="1032" d="M433 813H54V902Q54 1056 89 1139T232 1287T510 1351Q715 1351 819 1279T944 1101T965 666V0H572V118Q535 47 477 12T337 -24Q231 -24 143 35T54 296V405Q54 554 101 608T334 734Q533 812 547 839T561 949Q561 1053 546 1084T494 1116Q453 1116 443 1090T433 952V813ZM561 631Q464 560 449 512T433 374Q433 271 446 241T500 211Q538 211 549 234T561 358V631ZM428 1676V1416H167V1676H428ZM865 1676V1416H604V1676H865Z"/><glyph unicode="å" horiz-adv-x="1032" d="M433 813H54V902Q54 1056 89 1139T232 1287T510 1351Q715 1351 819 1279T944 1101T965 666V0H572V118Q535 47 477 12T337 -24Q231 -24 143 35T54 296V405Q54 554 101 608T334 734Q533 812 547 839T561 949Q561 1053 546 1084T494 1116Q453 1116 443 1090T433 952V813ZM561 631Q464 560 449 512T433 374Q433 271 446 241T500 211Q538 211 549 234T561 358V631ZM516 1837Q600 1837 663 1777T726 1626Q726 1539 664 1478T516 1416Q428 1416 367 1477T305 1626Q305 1713 367 1775T516 1837ZM514 1705Q481 1705 457 1681T432 1622Q432 1588 456 1564T514 1540Q548 1540 572 1564T597 1622Q597 1657 573 1681T514 1705Z"/><glyph unicode="æ" horiz-adv-x="1543" d="M1482 640H955V372Q955 270 968 241T1023 211Q1068 211 1084 241T1100 365V554H1482V420Q1482 289 1443 199T1299 43T1044 -24Q904 -24 806 14T651 128Q596 52 521 14T352 -24Q242 -24 171 21T77 135T54 361Q54 501 74 552T159 644T380 740Q463 768 492 787T532 834T543 957Q543 1046 531 1081T486 1116Q454 1116 445 1087T435 940V813H56V912Q56 1022 71 1085T142 1211T283 1313T502 1351Q576 1351 645 1333T777 1279Q823 1315 884 1333T1021 1351Q1173 1351 1282 1285T1437 1116T1482 811V640ZM1078 856V976Q1078 1069 1061 1092T1017 1116Q984 1116 970 1089T955 976V856H1078ZM551 623Q474 567 448 522T421 352Q421 275 436 243T493 211Q522 211 536 231T550 290L551 409V623Z"/><glyph unicode="ç" horiz-adv-x="1013" d="M546 -23V-52Q598 -52 644 -87T690 -184Q690 -260 628 -315T480 -371Q324 -371 281 -213H429Q443 -255 479 -255Q509 -255 523 -240T538 -195Q538 -162 518 -146T455 -129H429V-19Q278 -1 204 60T95 216T60 498V875Q60 1044 94 1130T239 1283T509 1351Q667 1351 779 1284T928 1115T965 826H584V979Q584 1059 571 1087T523 1116Q488 1116 476 1091T464 979V353Q464 282 482 247T535 211Q576 211 590 248T605 388V546H965Q964 398 956 320T896 159T763 31T546 -23Z"/><glyph unicode="è" horiz-adv-x="1047" d="M987 640H464V353Q464 263 477 237T527 211Q573 211 588 245T604 379V554H987V456Q987 333 972 267T899 126T755 14T535 -24Q407 -24 309 13T157 114T81 256T60 482V869Q60 1043 107 1143T261 1297T507 1351Q677 1351 787 1287T942 1116T987 816V640ZM582 856V953Q582 1056 571 1086T526 1116Q484 1116 474 1091T464 953V856H582ZM182 1687H538L714 1416H511L182 1687Z"/><glyph unicode="é" horiz-adv-x="1047" d="M987 640H464V353Q464 263 477 237T527 211Q573 211 588 245T604 379V554H987V456Q987 333 972 267T899 126T755 14T535 -24Q407 -24 309 13T157 114T81 256T60 482V869Q60 1043 107 1143T261 1297T507 1351Q677 1351 787 1287T942 1116T987 816V640ZM582 856V953Q582 1056 571 1086T526 1116Q484 1116 474 1091T464 953V856H582ZM865 1687L536 1416H333L509 1687H865Z"/><glyph unicode="ê" horiz-adv-x="1047" d="M987 640H464V353Q464 263 477 237T527 211Q573 211 588 245T604 379V554H987V456Q987 333 972 267T899 126T755 14T535 -24Q407 -24 309 13T157 114T81 256T60 482V869Q60 1043 107 1143T261 1297T507 1351Q677 1351 787 1287T942 1116T987 816V640ZM582 856V953Q582 1056 571 1086T526 1116Q484 1116 474 1091T464 953V856H582ZM531 1547L413 1416H133L390 1698H672L913 1416H642L531 1547Z"/><glyph unicode="ë" horiz-adv-x="1047" d="M987 640H464V353Q464 263 477 237T527 211Q573 211 588 245T604 379V554H987V456Q987 333 972 267T899 126T755 14T535 -24Q407 -24 309 13T157 114T81 256T60 482V869Q60 1043 107 1143T261 1297T507 1351Q677 1351 787 1287T942 1116T987 816V640ZM582 856V953Q582 1056 571 1086T526 1116Q484 1116 474 1091T464 953V856H582ZM435 1676V1416H174V1676H435ZM872 1676V1416H611V1676H872Z"/><glyph unicode="ì" horiz-adv-x="561" d="M488 1327V0H72V1327H488ZM198 1943H554L730 1672H527L198 1943Z"/><glyph unicode="í" horiz-adv-x="561" d="M488 1327V0H72V1327H488ZM881 1943L552 1672H349L525 1943H881Z"/><glyph unicode="î" horiz-adv-x="561" d="M488 1327V0H72V1327H488ZM548 1803L430 1672H150L407 1954H689L930 1672H659L548 1803Z"/><glyph unicode="ï" horiz-adv-x="561" d="M488 1327V0H72V1327H488ZM452 1932V1672H191V1932H452ZM889 1932V1672H628V1932H889Z"/><glyph unicode="ð" horiz-adv-x="1047" d="M370 1619H615Q642 1600 666 1579L827 1619L857 1530L743 1498Q811 1419 872 1308T960 1084T987 775V473Q987 306 944 201T791 36T516 -24Q349 -24 243 32T98 185T60 494V786Q60 961 94 1056T216 1221T415 1291Q513 1291 583 1235Q564 1342 509 1437L317 1385L287 1476L454 1522Q404 1589 370 1619ZM583 907Q583 1006 572 1031T524 1056Q490 1056 477 1026T464 920V351Q464 268 478 240T525 211Q556 211 569 238T583 362V907Z"/><glyph unicode="ñ" horiz-adv-x="1071" d="M483 1327L476 1205Q520 1278 583 1314T730 1351Q834 1351 900 1302T985 1179T1004 930V0H600V919Q600 1056 591 1086T541 1116Q498 1116 487 1082T476 897V0H72V1327H483ZM957 1606Q911 1505 844 1465T726 1425Q655 1425 573 1458L499 1487Q428 1516 393 1516Q319 1516 271 1416L113 1521Q223 1715 361 1715Q433 1715 518 1683L580 1660Q658 1631 686 1631Q769 1631 796 1721L957 1606Z"/><glyph unicode="ò" horiz-adv-x="1047" d="M986 861V536Q986 357 968 274T891 118T740 11T527 -24Q393 -24 300 5T156 94T82 238T60 492V832Q60 1017 100 1121T244 1288T510 1351Q646 1351 743 1311T894 1205T966 1071T986 861ZM582 961Q582 1063 571 1089T524 1116Q488 1116 476 1090T464 961V362Q464 268 476 240T523 211Q559 211 570 237T582 349V961ZM182 1687H538L714 1416H511L182 1687Z"/><glyph unicode="ó" horiz-adv-x="1047" d="M986 861V536Q986 357 968 274T891 118T740 11T527 -24Q393 -24 300 5T156 94T82 238T60 492V832Q60 1017 100 1121T244 1288T510 1351Q646 1351 743 1311T894 1205T966 1071T986 861ZM582 961Q582 1063 571 1089T524 1116Q488 1116 476 1090T464 961V362Q464 268 476 240T523 211Q559 211 570 237T582 349V961ZM865 1687L536 1416H333L509 1687H865Z"/><glyph unicode="ô" horiz-adv-x="1047" d="M986 861V536Q986 357 968 274T891 118T740 11T527 -24Q393 -24 300 5T156 94T82 238T60 492V832Q60 1017 100 1121T244 1288T510 1351Q646 1351 743 1311T894 1205T966 1071T986 861ZM582 961Q582 1063 571 1089T524 1116Q488 1116 476 1090T464 961V362Q464 268 476 240T523 211Q559 211 570 237T582 349V961ZM531 1547L413 1416H133L390 1698H672L913 1416H642L531 1547Z"/><glyph unicode="õ" horiz-adv-x="1047" d="M986 861V536Q986 357 968 274T891 118T740 11T527 -24Q393 -24 300 5T156 94T82 238T60 492V832Q60 1017 100 1121T244 1288T510 1351Q646 1351 743 1311T894 1205T966 1071T986 861ZM582 961Q582 1063 571 1089T524 1116Q488 1116 476 1090T464 961V362Q464 268 476 240T523 211Q559 211 570 237T582 349V961ZM945 1606Q899 1505 832 1465T714 1425Q643 1425 561 1458L487 1487Q416 1516 381 1516Q307 1516 259 1416L101 1521Q211 1715 349 1715Q421 1715 506 1683L568 1660Q646 1631 674 1631Q757 1631 784 1721L945 1606Z"/><glyph unicode="ö" horiz-adv-x="1047" d="M986 861V536Q986 357 968 274T891 118T740 11T527 -24Q393 -24 300 5T156 94T82 238T60 492V832Q60 1017 100 1121T244 1288T510 1351Q646 1351 743 1311T894 1205T966 1071T986 861ZM582 961Q582 1063 571 1089T524 1116Q488 1116 476 1090T464 961V362Q464 268 476 240T523 211Q559 211 570 237T582 349V961ZM435 1676V1416H174V1676H435ZM872 1676V1416H611V1676H872Z"/><glyph unicode="÷" horiz-adv-x="1092" d="M404 1144Q404 1203 445 1243T543 1283Q600 1283 641 1242T682 1145Q682 1088 641 1047T543 1006Q484 1006 444 1048T404 1144ZM64 927H1028V691H64V927ZM404 476Q404 539 446 579T544 619Q601 619 642 579T684 479Q684 422 643 381T544 340Q485 340 445 382T404 476Z"/><glyph unicode="ø" horiz-adv-x="1047" d="M912 1181Q951 1128 968 1066T986 861V536Q986 357 968 274T891 118T740 11T527 -24Q413 -24 329 -3T192 61L161 14L82 65L127 134Q93 190 77 260T60 492V832Q60 1017 100 1121T244 1288T510 1351Q615 1351 699 1326T845 1251L886 1313L964 1262L912 1181ZM582 835V961Q582 1063 571 1089T524 1116Q488 1116 476 1090T464 961V655L582 835ZM464 481V362Q464 268 476 240T523 211Q559 211 570 237T582 349V662L464 481Z"/><glyph unicode="ù" horiz-adv-x="1070" d="M997 1327V0H586L593 110Q551 43 490 10T348 -24Q257 -24 197 8T109 93T73 203T66 432V1327H470V424Q470 269 479 240T531 211Q576 211 584 241T593 434V1327H997ZM193 1687H549L725 1416H522L193 1687Z"/><glyph unicode="ú" horiz-adv-x="1070" d="M997 1327V0H586L593 110Q551 43 490 10T348 -24Q257 -24 197 8T109 93T73 203T66 432V1327H470V424Q470 269 479 240T531 211Q576 211 584 241T593 434V1327H997ZM876 1687L547 1416H344L520 1687H876Z"/><glyph unicode="û" horiz-adv-x="1070" d="M997 1327V0H586L593 110Q551 43 490 10T348 -24Q257 -24 197 8T109 93T73 203T66 432V1327H470V424Q470 269 479 240T531 211Q576 211 584 241T593 434V1327H997ZM543 1547L425 1416H145L402 1698H684L925 1416H654L543 1547Z"/><glyph unicode="ü" horiz-adv-x="1070" d="M997 1327V0H586L593 110Q551 43 490 10T348 -24Q257 -24 197 8T109 93T73 203T66 432V1327H470V424Q470 269 479 240T531 211Q576 211 584 241T593 434V1327H997ZM447 1676V1416H186V1676H447ZM884 1676V1416H623V1676H884Z"/><glyph unicode="ý" horiz-adv-x="918" d="M918 1327L802 367Q775 139 757 56T695 -81T576 -160T331 -186H86V26Q180 26 207 35T234 78Q234 94 209 217L-12 1327H355L487 432L551 1327H918ZM814 1687L485 1416H282L458 1687H814Z"/><glyph unicode="þ" horiz-adv-x="1063" d="M476 1619V1210Q583 1351 737 1351Q831 1351 899 1301T985 1184T1002 960V401Q1002 220 981 144T893 22T732 -24Q582 -24 476 115V-189H72V1619H476ZM598 941Q598 1064 589 1090T539 1116Q499 1116 488 1086T476 941V391Q476 271 488 241T540 211Q579 211 588 238T598 372V941Z"/><glyph unicode="ÿ" horiz-adv-x="918" d="M918 1327L802 367Q775 139 757 56T695 -81T576 -160T331 -186H86V26Q180 26 207 35T234 78Q234 94 209 217L-12 1327H355L487 432L551 1327H918ZM385 1676V1416H124V1676H385ZM822 1676V1416H561V1676H822Z"/><glyph unicode="Ā" horiz-adv-x="1040" d="M811 1619L1052 0H621L600 291H449L424 0H-12L202 1619H811ZM588 578Q556 853 524 1257Q460 793 444 578H588ZM905 1843V1670H109V1843H905Z"/><glyph unicode="ā" horiz-adv-x="1032" d="M433 813H54V902Q54 1056 89 1139T232 1287T510 1351Q715 1351 819 1279T944 1101T965 666V0H572V118Q535 47 477 12T337 -24Q231 -24 143 35T54 296V405Q54 554 101 608T334 734Q533 812 547 839T561 949Q561 1053 546 1084T494 1116Q453 1116 443 1090T433 952V813ZM561 631Q464 560 449 512T433 374Q433 271 446 241T500 211Q538 211 549 234T561 358V631ZM927 1589V1416H131V1589H927Z"/><glyph unicode="Ă" horiz-adv-x="1040" d="M811 1619L1052 0H621L600 291H449L424 0H-12L202 1619H811ZM588 578Q556 853 524 1257Q460 793 444 578H588ZM620 1972H790Q784 1836 711 1753T506 1670Q374 1670 302 1753T223 1972H393Q405 1835 506 1835Q608 1835 620 1972Z"/><glyph unicode="ă" horiz-adv-x="1032" d="M433 813H54V902Q54 1056 89 1139T232 1287T510 1351Q715 1351 819 1279T944 1101T965 666V0H572V118Q535 47 477 12T337 -24Q231 -24 143 35T54 296V405Q54 554 101 608T334 734Q533 812 547 839T561 949Q561 1053 546 1084T494 1116Q453 1116 443 1090T433 952V813ZM561 631Q464 560 449 512T433 374Q433 271 446 241T500 211Q538 211 549 234T561 358V631ZM618 1718H788Q782 1582 709 1499T504 1416Q372 1416 300 1499T221 1718H391Q403 1581 504 1581Q606 1581 618 1718Z"/><glyph unicode="Ą" horiz-adv-x="1040" d="M879 0Q793 -85 793 -135Q793 -199 864 -199Q914 -199 979 -172L1020 -272Q924 -317 846 -317Q755 -317 701 -274T647 -162Q647 -79 731 0H621L600 291H449L424 0H-12L203 1620H811L1053 0H879ZM444 580H588Q547 942 524 1257Q471 866 444 580Z"/><glyph unicode="ą" horiz-adv-x="1032" d="M838 0Q752 -85 752 -135Q752 -199 823 -199Q873 -199 938 -172L979 -272Q883 -317 805 -317Q714 -317 660 -274T606 -162Q606 -79 690 0H573V119Q538 54 487 26T338 -2Q188 -2 122 60T55 297V406Q55 549 95 602T281 713Q474 789 518 814T563 948Q563 1035 550 1075T500 1116Q468 1116 451 1099T434 1012V813H55V901Q55 1029 77 1105T167 1238T301 1305T512 1317Q641 1317 727 1301T863 1243T936 1125T963 963T967 666V0H838ZM563 293V631Q480 568 457 525T434 350Q434 262 451 237T502 211Q563 211 563 293Z"/><glyph unicode="Ć" horiz-adv-x="1134" d="M1067 913H646V1195Q646 1318 633 1348T573 1379Q521 1379 507 1342T493 1182V430Q493 312 507 276T570 240Q617 240 631 276T646 445V648H1067V585Q1067 334 1032 229T875 45T575 -34Q390 -34 270 33T111 218T72 575V1048Q72 1223 84 1310T155 1479T320 1606T563 1653Q749 1653 870 1581T1029 1402T1067 1067V913ZM911 1941L582 1670H379L555 1941H911Z"/><glyph unicode="ć" horiz-adv-x="1013" d="M965 826H584V979Q584 1059 571 1087T523 1116Q488 1116 476 1091T464 979V353Q464 282 482 247T535 211Q576 211 590 248T605 388V546H965Q964 387 954 308T887 145T739 19T514 -24Q343 -24 243 34T102 198T60 498V875Q60 1044 94 1130T239 1283T509 1351Q667 1351 779 1284T928 1115T965 826ZM851 1687L522 1416H319L495 1687H851Z"/><glyph unicode="Ĉ" horiz-adv-x="1134" d="M1067 913H646V1195Q646 1318 633 1348T573 1379Q521 1379 507 1342T493 1182V430Q493 312 507 276T570 240Q617 240 631 276T646 445V648H1067V585Q1067 334 1032 229T875 45T575 -34Q390 -34 270 33T111 218T72 575V1048Q72 1223 84 1310T155 1479T320 1606T563 1653Q749 1653 870 1581T1029 1402T1067 1067V913ZM564 1801L446 1670H166L423 1952H705L946 1670H675L564 1801Z"/><glyph unicode="ĉ" horiz-adv-x="1013" d="M965 826H584V979Q584 1059 571 1087T523 1116Q488 1116 476 1091T464 979V353Q464 282 482 247T535 211Q576 211 590 248T605 388V546H965Q964 387 954 308T887 145T739 19T514 -24Q343 -24 243 34T102 198T60 498V875Q60 1044 94 1130T239 1283T509 1351Q667 1351 779 1284T928 1115T965 826ZM504 1547L386 1416H106L363 1698H645L886 1416H615L504 1547Z"/><glyph unicode="Ċ" horiz-adv-x="1134" d="M1067 913H646V1195Q646 1318 633 1348T573 1379Q521 1379 507 1342T493 1182V430Q493 312 507 276T570 240Q617 240 631 276T646 445V648H1067V585Q1067 334 1032 229T875 45T575 -34Q390 -34 270 33T111 218T72 575V1048Q72 1223 84 1310T155 1479T320 1606T563 1653Q749 1653 870 1581T1029 1402T1067 1067V913ZM681 1930V1670H420V1930H681Z"/><glyph unicode="ċ" horiz-adv-x="1013" d="M965 826H584V979Q584 1059 571 1087T523 1116Q488 1116 476 1091T464 979V353Q464 282 482 247T535 211Q576 211 590 248T605 388V546H965Q964 387 954 308T887 145T739 19T514 -24Q343 -24 243 34T102 198T60 498V875Q60 1044 94 1130T239 1283T509 1351Q667 1351 779 1284T928 1115T965 826ZM632 1676V1416H371V1676H632Z"/><glyph unicode="Č" horiz-adv-x="1134" d="M1067 913H646V1195Q646 1318 633 1348T573 1379Q521 1379 507 1342T493 1182V430Q493 312 507 276T570 240Q617 240 631 276T646 445V648H1067V585Q1067 334 1032 229T875 45T575 -34Q390 -34 270 33T111 218T72 575V1048Q72 1223 84 1310T155 1479T320 1606T563 1653Q749 1653 870 1581T1029 1402T1067 1067V913ZM578 1821L689 1952H960L719 1670H437L180 1952H460L578 1821Z"/><glyph unicode="č" horiz-adv-x="1013" d="M965 826H584V979Q584 1059 571 1087T523 1116Q488 1116 476 1091T464 979V353Q464 282 482 247T535 211Q576 211 590 248T605 388V546H965Q964 387 954 308T887 145T739 19T514 -24Q343 -24 243 34T102 198T60 498V875Q60 1044 94 1130T239 1283T509 1351Q667 1351 779 1284T928 1115T965 826ZM518 1567L629 1698H900L659 1416H377L120 1698H400L518 1567Z"/><glyph unicode="Ď" horiz-adv-x="1132" d="M84 1619H399Q704 1619 811 1591T975 1499T1045 1357T1059 1048V481Q1059 263 1039 190T967 75T841 17T615 0H84V1619ZM505 1342V277Q596 277 617 313T638 512V1141Q638 1251 631 1282T599 1327T505 1342ZM553 1821L664 1952H935L694 1670H412L155 1952H435L553 1821Z"/><glyph unicode="ď" horiz-adv-x="1352" d="M991 1619V0H587V96Q529 36 465 6T331 -24Q237 -24 168 25T80 140T60 352V973Q60 1126 79 1190T169 1302T336 1351Q411 1351 473 1324T587 1243V1619H991ZM587 993Q587 1066 575 1091T525 1116Q489 1116 477 1094T464 993V343Q464 262 476 237T522 211Q561 211 574 239T587 379V993ZM1080 1619H1352V1535Q1352 1213 1080 1156V1273Q1138 1308 1147 1363H1080V1619Z"/><glyph unicode="Đ" horiz-adv-x="1144" d="M96 810H14V982H96V1619H411Q716 1619 823 1591T987 1499T1057 1357T1071 1048V481Q1071 263 1051 190T979 75T853 17T627 0H96V810ZM517 810V277Q608 277 629 313T650 512V1141Q650 1251 643 1282T612 1327T517 1342V982H583V810H517Z"/><glyph unicode="đ" horiz-adv-x="1064" d="M991 1571H1061V1399H991V0H587V96Q470 -24 331 -24Q237 -24 168 25T80 140T60 352V973Q60 1126 79 1190T169 1302T336 1351Q485 1351 587 1243V1399H336V1571H587V1619H991V1571ZM587 993Q587 1066 575 1091T525 1116Q489 1116 477 1094T464 993V343Q464 262 476 237T522 211Q561 211 574 239T587 379V993Z"/><glyph unicode="Ē" horiz-adv-x="851" d="M84 1619H786V1295H505V988H768V680H505V324H814V0H84V1619ZM839 1843V1670H43V1843H839Z"/><glyph unicode="ē" horiz-adv-x="1047" d="M987 640H464V353Q464 263 477 237T527 211Q573 211 588 245T604 379V554H987V456Q987 333 972 267T899 126T755 14T535 -24Q407 -24 309 13T157 114T81 256T60 482V869Q60 1043 107 1143T261 1297T507 1351Q677 1351 787 1287T942 1116T987 816V640ZM582 856V953Q582 1056 571 1086T526 1116Q484 1116 474 1091T464 953V856H582ZM923 1589V1416H127V1589H923Z"/><glyph unicode="Ĕ" horiz-adv-x="851" d="M84 1619H786V1295H505V988H768V680H505V324H814V0H84V1619ZM561 1972H731Q725 1836 652 1753T447 1670Q315 1670 243 1753T164 1972H334Q346 1835 447 1835Q549 1835 561 1972Z"/><glyph unicode="ĕ" horiz-adv-x="1047" d="M987 640H464V353Q464 263 477 237T527 211Q573 211 588 245T604 379V554H987V456Q987 333 972 267T899 126T755 14T535 -24Q407 -24 309 13T157 114T81 256T60 482V869Q60 1043 107 1143T261 1297T507 1351Q677 1351 787 1287T942 1116T987 816V640ZM582 856V953Q582 1056 571 1086T526 1116Q484 1116 474 1091T464 953V856H582ZM622 1718H792Q786 1582 713 1499T508 1416Q376 1416 304 1499T225 1718H395Q407 1581 508 1581Q610 1581 622 1718Z"/><glyph unicode="Ė" horiz-adv-x="851" d="M84 1619H786V1295H505V988H768V680H505V324H814V0H84V1619ZM583 1930V1670H322V1930H583Z"/><glyph unicode="ė" horiz-adv-x="1047" d="M987 640H464V353Q464 263 477 237T527 211Q573 211 588 245T604 379V554H987V456Q987 333 972 267T899 126T755 14T535 -24Q407 -24 309 13T157 114T81 256T60 482V869Q60 1043 107 1143T261 1297T507 1351Q677 1351 787 1287T942 1116T987 816V640ZM582 856V953Q582 1056 571 1086T526 1116Q484 1116 474 1091T464 953V856H582ZM632 1676V1416H371V1676H632Z"/><glyph unicode="Ę" horiz-adv-x="850" d="M571 0H84V1620H786V1296H506V987H768V680H506V324H813V0H719Q633 -85 633 -135Q633 -199 705 -199Q754 -199 819 -172L860 -272Q764 -317 686 -317Q595 -317 541 -274T487 -162Q487 -79 571 0Z"/><glyph unicode="ę" horiz-adv-x="1047" d="M614 0Q528 -82 528 -135Q528 -199 600 -199Q650 -199 715 -172L756 -272Q660 -317 582 -317Q491 -317 437 -274T383 -162Q383 -79 467 0Q349 8 264 45T131 151T71 292T59 481V868Q59 976 76 1058T146 1203T291 1297T506 1327Q694 1327 804 1268T950 1099T985 815V639H463V352Q463 257 479 234T526 211Q567 211 585 241T604 350V555H985V457Q985 347 973 280T910 142T788 39T614 0ZM463 1018V856H582V952Q582 1046 573 1080T524 1114Q493 1114 478 1095T463 1018Z"/><glyph unicode="Ě" horiz-adv-x="851" d="M84 1619H786V1295H505V988H768V680H505V324H814V0H84V1619ZM447 1821L558 1952H829L588 1670H306L49 1952H329L447 1821Z"/><glyph unicode="ě" horiz-adv-x="1047" d="M987 640H464V353Q464 263 477 237T527 211Q573 211 588 245T604 379V554H987V456Q987 333 972 267T899 126T755 14T535 -24Q407 -24 309 13T157 114T81 256T60 482V869Q60 1043 107 1143T261 1297T507 1351Q677 1351 787 1287T942 1116T987 816V640ZM582 856V953Q582 1056 571 1086T526 1116Q484 1116 474 1091T464 953V856H582ZM509 1567L620 1698H891L650 1416H368L111 1698H391L509 1567Z"/><glyph unicode="Ĝ" horiz-adv-x="1129" d="M1050 1277H629V1424Q629 1563 617 1598T560 1633Q521 1633 507 1603T493 1449V672Q493 563 507 529T563 494Q609 494 625 533T642 685V877H557V1123H1050V254H785L746 370Q703 295 638 258T483 220Q377 220 285 271T144 399T84 558T72 809V1290Q72 1522 97 1627T240 1819T547 1907Q732 1907 854 1831T1013 1651T1050 1347V1277ZM568 1801L450 1670H170L427 1952H709L950 1670H679L568 1801Z"/><glyph unicode="ĝ" horiz-adv-x="1062" d="M990 1327V305Q990 98 981 38T913 -90T752 -193T491 -229Q298 -229 181 -164T60 94H452Q452 6 516 6Q562 6 577 33T592 146V246Q540 199 483 175T362 151Q253 151 183 195T86 310T60 514V996Q60 1185 128 1268T335 1351Q411 1351 473 1320T585 1227L614 1327H990ZM585 975Q585 1066 575 1091T528 1116Q493 1116 479 1088T464 975V529Q464 440 475 414T521 387Q561 387 573 419T585 564V975ZM554 1547L436 1416H156L413 1698H695L936 1416H665L554 1547Z"/><glyph unicode="Ğ" horiz-adv-x="1129" d="M1050 1023H629V1170Q629 1309 617 1344T560 1379Q521 1379 507 1349T493 1195V418Q493 309 507 275T563 240Q609 240 625 279T642 431V623H557V869H1050V0H785L746 116Q703 41 638 4T483 -34Q377 -34 285 17T144 145T84 304T72 555V1036Q72 1268 97 1373T240 1565T547 1653Q732 1653 854 1577T1013 1397T1050 1093V1023ZM678 1972H848Q842 1836 769 1753T564 1670Q432 1670 360 1753T281 1972H451Q463 1835 564 1835Q666 1835 678 1972Z"/><glyph unicode="ğ" horiz-adv-x="1062" d="M990 1327V305Q990 98 981 38T913 -90T752 -193T491 -229Q298 -229 181 -164T60 94H452Q452 6 516 6Q562 6 577 33T592 146V246Q540 199 483 175T362 151Q253 151 183 195T86 310T60 514V996Q60 1185 128 1268T335 1351Q411 1351 473 1320T585 1227L614 1327H990ZM585 975Q585 1066 575 1091T528 1116Q493 1116 479 1088T464 975V529Q464 440 475 414T521 387Q561 387 573 419T585 564V975ZM644 1718H814Q808 1582 735 1499T530 1416Q398 1416 326 1499T247 1718H417Q429 1581 530 1581Q632 1581 644 1718Z"/><glyph unicode="Ġ" horiz-adv-x="1129" d="M1050 1277H629V1424Q629 1563 617 1598T560 1633Q521 1633 507 1603T493 1449V672Q493 563 507 529T563 494Q609 494 625 533T642 685V877H557V1123H1050V254H785L746 370Q703 295 638 258T483 220Q377 220 285 271T144 399T84 558T72 809V1290Q72 1522 97 1627T240 1819T547 1907Q732 1907 854 1831T1013 1651T1050 1347V1277ZM695 1930V1670H434V1930H695Z"/><glyph unicode="ġ" horiz-adv-x="1062" d="M990 1327V305Q990 98 981 38T913 -90T752 -193T491 -229Q298 -229 181 -164T60 94H452Q452 6 516 6Q562 6 577 33T592 146V246Q540 199 483 175T362 151Q253 151 183 195T86 310T60 514V996Q60 1185 128 1268T335 1351Q411 1351 473 1320T585 1227L614 1327H990ZM585 975Q585 1066 575 1091T528 1116Q493 1116 479 1088T464 975V529Q464 440 475 414T521 387Q561 387 573 419T585 564V975ZM683 1676V1416H422V1676H683Z"/><glyph unicode="Ģ" horiz-adv-x="1129" d="M1050 1023H629V1170Q629 1309 617 1344T560 1379Q521 1379 507 1349T493 1195V418Q493 309 507 275T563 240Q609 240 625 279T642 431V623H557V869H1050V0H785L746 116Q703 41 638 4T483 -34Q377 -34 285 17T144 145T84 304T72 555V1036Q72 1268 97 1373T240 1565T547 1653Q732 1653 854 1577T1013 1397T1050 1093V1023ZM428 -80H700V-164Q700 -486 428 -543V-426Q486 -391 495 -336H428V-80Z"/><glyph unicode="ģ" horiz-adv-x="1062" d="M990 1327V305Q990 98 981 38T913 -90T752 -193T491 -229Q298 -229 181 -164T60 94H452Q452 6 516 6Q562 6 577 33T592 146V246Q540 199 483 175T362 151Q253 151 183 195T86 310T60 514V996Q60 1185 128 1268T335 1351Q411 1351 473 1320T585 1227L614 1327H990ZM585 975Q585 1066 575 1091T528 1116Q493 1116 479 1088T464 975V529Q464 440 475 414T521 387Q561 387 573 419T585 564V975ZM402 1416V1561Q402 1675 429 1748T523 1872T673 1940V1824Q614 1790 606 1733H673V1416H402Z"/><glyph unicode="Ĥ" horiz-adv-x="1137" d="M1052 1619V0H631V680H505V0H84V1619H505V1040H631V1619H1052ZM570 1801L452 1670H172L429 1952H711L952 1670H681L570 1801Z"/><glyph unicode="ĥ" horiz-adv-x="1073" d="M476 1619V1255Q528 1303 588 1327T718 1351Q824 1351 898 1297T989 1173T1006 915V0H602V934Q602 1050 591 1083T539 1116Q502 1116 489 1082T476 947V0H72V1619H476ZM550 1801L432 1670H152L409 1952H691L932 1670H661L550 1801Z"/><glyph unicode="Ħ" horiz-adv-x="1137" d="M84 1403V1620H506V1403H631V1620H1053V1403H1120V1231H1053V0H631V680H506V0H84V1231H14V1403H84ZM506 1231V1040H631V1231H506Z"/><glyph unicode="ħ" horiz-adv-x="1073" d="M72 1559V1620H475V1559H569V1386H475V1255Q551 1327 717 1327Q832 1327 903 1286T990 1167T1006 915V0H602V934Q602 1040 592 1077T539 1114Q503 1114 489 1081T475 948V0H72V1386H0V1559H72Z"/><glyph unicode="Ĩ" horiz-adv-x="590" d="M505 1619V0H84V1619H505ZM719 1860Q673 1759 606 1719T488 1679Q417 1679 335 1712L261 1741Q190 1770 155 1770Q81 1770 33 1670L-125 1775Q-15 1969 123 1969Q195 1969 280 1937L342 1914Q420 1885 448 1885Q531 1885 558 1975L719 1860Z"/><glyph unicode="ĩ" horiz-adv-x="561" d="M488 1327V0H72V1327H488ZM959 1862Q913 1761 846 1721T728 1681Q657 1681 575 1714L501 1743Q430 1772 395 1772Q321 1772 273 1672L115 1777Q225 1971 363 1971Q435 1971 520 1939L582 1916Q660 1887 688 1887Q771 1887 798 1977L959 1862Z"/><glyph unicode="Ī" horiz-adv-x="590" d="M505 1619V0H84V1619H505ZM694 1843V1670H-102V1843H694Z"/><glyph unicode="ī" horiz-adv-x="561" d="M488 1327V0H72V1327H488ZM935 1845V1672H139V1845H935Z"/><glyph unicode="Ĭ" horiz-adv-x="590" d="M505 1619V0H84V1619H505ZM403 1972H573Q567 1836 494 1753T289 1670Q157 1670 85 1753T6 1972H176Q188 1835 289 1835Q391 1835 403 1972Z"/><glyph unicode="ĭ" horiz-adv-x="561" d="M488 1327V0H72V1327H488ZM651 1974H821Q815 1838 742 1755T537 1672Q405 1672 333 1755T254 1974H424Q436 1837 537 1837Q639 1837 651 1974Z"/><glyph unicode="Į" horiz-adv-x="590" d="M240 0H84V1620H506V0H387Q301 -85 301 -135Q301 -199 373 -199Q423 -199 487 -172L528 -272Q432 -317 354 -317Q263 -317 210 -274T156 -162Q156 -79 240 0Z"/><glyph unicode="į" horiz-adv-x="561" d="M219 0H72V1327H487V0H367Q281 -85 281 -135Q281 -199 352 -199Q402 -199 467 -172L508 -272Q412 -317 334 -317Q243 -317 189 -274T135 -162Q135 -79 219 0Z"/><glyph unicode="İ" horiz-adv-x="590" d="M505 1619V0H84V1619H505ZM425 1930V1670H164V1930H425Z"/><glyph unicode="ı" horiz-adv-x="561" d="M488 1327V0H72V1327H488Z"/><glyph unicode="Ĳ" horiz-adv-x="1282" d="M84 0V1620H506V0H84ZM776 412V1620H1198V360Q1198 138 1125 69T827 0H616V283L672 281Q726 281 751 310T776 412Z"/><glyph unicode="ĳ" horiz-adv-x="1133" d="M72 1411V1620H487V1411H72ZM645 1411V1620H1061V1411H645ZM72 0V1327H487V0H72ZM645 156V1327H1061V152Q1061 -46 983 -116T711 -186H555V27Q611 27 624 32T641 60T645 156Z"/><glyph unicode="Ĵ" horiz-adv-x="678" d="M599 1619V537Q599 294 594 225T549 99T439 22T229 0H18V283Q56 280 73 280Q118 280 144 302T174 356T178 480V1619H599ZM382 1801L264 1670H-16L241 1952H523L764 1670H493L382 1801Z"/><glyph unicode="ĵ" horiz-adv-x="573" d="M397 1501L287 1632L170 1501H-111L147 1784H428L670 1501H397ZM84 156V1327H500V152Q500 -46 422 -116T150 -186H-6V27Q50 27 63 32T80 60T84 156Z"/><glyph unicode="Ķ" horiz-adv-x="1099" d="M1087 1619L846 888L1110 0H675L505 694V0H84V1619H505V990L692 1619H1087ZM459 -80H731V-164Q731 -486 459 -543V-426Q517 -391 526 -336H459V-80Z"/><glyph unicode="ķ" horiz-adv-x="979" d="M942 1327L778 798L991 0H602L476 578V0H72V1619H476V939L602 1327H942ZM397 -80H669V-164Q669 -486 397 -543V-426Q455 -391 464 -336H397V-80Z"/><glyph unicode="ĸ" horiz-adv-x="1059" d="M475 817L692 1327H1042L793 748L1063 0H670L475 586V0H72V1327H475V817Z"/><glyph unicode="Ĺ" horiz-adv-x="779" d="M505 1619V324H761V0H84V1619H505ZM692 1941L363 1670H160L336 1941H692Z"/><glyph unicode="ĺ" horiz-adv-x="561" d="M488 1619V0H72V1619H488ZM626 1941L297 1670H94L270 1941H626Z"/><glyph unicode="Ļ" horiz-adv-x="779" d="M505 1619V324H761V0H84V1619H505ZM317 -80H589V-164Q589 -486 317 -543V-426Q375 -391 384 -336H317V-80Z"/><glyph unicode="ļ" horiz-adv-x="561" d="M488 1619V0H72V1619H488ZM144 176H416V92Q416 -230 144 -287V-170Q202 -135 211 -80H144V176Z"/><glyph unicode="Ľ" horiz-adv-x="885" d="M505 1619V324H761V0H84V1619H505ZM596 1620H868V1536Q868 1214 596 1157V1274Q654 1309 663 1364H596V1620Z"/><glyph unicode="ľ" horiz-adv-x="879" d="M488 1619V0H72V1619H488ZM586 1620H858V1536Q858 1214 586 1157V1274Q644 1309 653 1364H586V1620Z"/><glyph unicode="Ŀ" horiz-adv-x="872" d="M505 1619V324H761V0H84V1619H505ZM835 1228V968H574V1228H835Z"/><glyph unicode="ŀ" horiz-adv-x="872" d="M488 1619V0H72V1619H488ZM835 1228V968H574V1228H835Z"/><glyph unicode="Ł" horiz-adv-x="785" d="M517 1011L761 1066V894L517 839V324H773V0H96V744L14 725V897L96 916V1619H517V1011Z"/><glyph unicode="ł" horiz-adv-x="585" d="M500 1045L570 1066V894L500 873V0H84V747L14 725V897L84 918V1619H500V1045Z"/><glyph unicode="Ń" horiz-adv-x="1109" d="M1024 1619V0H655L436 736V0H84V1619H436L672 890V1619H1024ZM876 1941L547 1670H344L520 1941H876Z"/><glyph unicode="ń" horiz-adv-x="1071" d="M483 1327L476 1205Q520 1278 583 1314T730 1351Q834 1351 900 1302T985 1179T1004 930V0H600V919Q600 1056 591 1086T541 1116Q498 1116 487 1082T476 897V0H72V1327H483ZM827 1687L498 1416H295L471 1687H827Z"/><glyph unicode="Ņ" horiz-adv-x="1109" d="M1024 1619V0H655L436 736V0H84V1619H436L672 890V1619H1024ZM418 -80H690V-164Q690 -486 418 -543V-426Q476 -391 485 -336H418V-80Z"/><glyph unicode="ņ" horiz-adv-x="1071" d="M483 1327L476 1205Q520 1278 583 1314T730 1351Q834 1351 900 1302T985 1179T1004 930V0H600V919Q600 1056 591 1086T541 1116Q498 1116 487 1082T476 897V0H72V1327H483ZM399 -80H671V-164Q671 -486 399 -543V-426Q457 -391 466 -336H399V-80Z"/><glyph unicode="Ň" horiz-adv-x="1109" d="M1024 1619V0H655L436 736V0H84V1619H436L672 890V1619H1024ZM539 1821L650 1952H921L680 1670H398L141 1952H421L539 1821Z"/><glyph unicode="ň" horiz-adv-x="1071" d="M483 1327L476 1205Q520 1278 583 1314T730 1351Q834 1351 900 1302T985 1179T1004 930V0H600V919Q600 1056 591 1086T541 1116Q498 1116 487 1082T476 897V0H72V1327H483ZM529 1567L640 1698H911L670 1416H388L131 1698H411L529 1567Z"/><glyph unicode="ŉ" horiz-adv-x="1341" d="M749 1321L742 1199Q786 1272 849 1308T996 1345Q1100 1345 1166 1296T1251 1173T1270 924V-6H866V913Q866 1050 857 1080T807 1110Q764 1110 753 1076T742 891V-6H338V1321H749ZM266 1620H538V1536Q538 1214 266 1157V1274Q324 1309 333 1364H266V1620Z"/><glyph unicode="Ŋ" horiz-adv-x="1133" d="M684 0H584V213Q613 214 623 238T633 342V1202Q633 1304 623 1342T567 1380Q541 1380 524 1357T506 1311V0H84V1620H506V1536Q527 1564 585 1590T698 1616Q850 1616 916 1550T1019 1393T1055 948V672Q1055 449 1044 343T983 157T855 39T684 0Z"/><glyph unicode="ŋ" horiz-adv-x="1071" d="M668 -252H512V-39Q574 -39 587 -31T600 90V920Q600 1050 592 1083T541 1116Q494 1116 485 1075T475 897V0H72V1327H483L475 1204Q561 1339 729 1339Q808 1339 860 1321T950 1251T995 1132T1004 930V92Q1004 -252 668 -252Z"/><glyph unicode="Ō" horiz-adv-x="1119" d="M1046 924Q1046 680 1035 579T963 393T799 264T559 219Q429 219 326 261T159 389T84 574T72 924V1201Q72 1445 83 1546T155 1732T319 1861T559 1906Q689 1906 792 1864T959 1736T1034 1551T1046 1201V924ZM625 1456Q625 1569 613 1600T561 1632Q528 1632 511 1607T493 1456V700Q493 559 504 526T558 493Q601 493 613 531T625 712V1456ZM952 1843V1670H156V1843H952Z"/><glyph unicode="ō" horiz-adv-x="1047" d="M986 861V536Q986 357 968 274T891 118T740 11T527 -24Q393 -24 300 5T156 94T82 238T60 492V832Q60 1017 100 1121T244 1288T510 1351Q646 1351 743 1311T894 1205T966 1071T986 861ZM582 961Q582 1063 571 1089T524 1116Q488 1116 476 1090T464 961V362Q464 268 476 240T523 211Q559 211 570 237T582 349V961ZM919 1589V1416H123V1589H919Z"/><glyph unicode="Ŏ" horiz-adv-x="1119" d="M1046 924Q1046 680 1035 579T963 393T799 264T559 219Q429 219 326 261T159 389T84 574T72 924V1201Q72 1445 83 1546T155 1732T319 1861T559 1906Q689 1906 792 1864T959 1736T1034 1551T1046 1201V924ZM625 1456Q625 1569 613 1600T561 1632Q528 1632 511 1607T493 1456V700Q493 559 504 526T558 493Q601 493 613 531T625 712V1456ZM667 1972H837Q831 1836 758 1753T553 1670Q421 1670 349 1753T270 1972H440Q452 1835 553 1835Q655 1835 667 1972Z"/><glyph unicode="ŏ" horiz-adv-x="1047" d="M986 861V536Q986 357 968 274T891 118T740 11T527 -24Q393 -24 300 5T156 94T82 238T60 492V832Q60 1017 100 1121T244 1288T510 1351Q646 1351 743 1311T894 1205T966 1071T986 861ZM582 961Q582 1063 571 1089T524 1116Q488 1116 476 1090T464 961V362Q464 268 476 240T523 211Q559 211 570 237T582 349V961ZM626 1718H796Q790 1582 717 1499T512 1416Q380 1416 308 1499T229 1718H399Q411 1581 512 1581Q614 1581 626 1718Z"/><glyph unicode="Ő" horiz-adv-x="1119" d="M1046 924Q1046 680 1035 579T963 393T799 264T559 219Q429 219 326 261T159 389T84 574T72 924V1201Q72 1445 83 1546T155 1732T319 1861T559 1906Q689 1906 792 1864T959 1736T1034 1551T1046 1201V924ZM625 1456Q625 1569 613 1600T561 1632Q528 1632 511 1607T493 1456V700Q493 559 504 526T558 493Q601 493 613 531T625 712V1456ZM619 1980L378 1670H229L347 1980H619ZM1008 1980L768 1670H619L737 1980H1008Z"/><glyph unicode="ő" horiz-adv-x="1047" d="M986 861V536Q986 357 968 274T891 118T740 11T527 -24Q393 -24 300 5T156 94T82 238T60 492V832Q60 1017 100 1121T244 1288T510 1351Q646 1351 743 1311T894 1205T966 1071T986 861ZM582 961Q582 1063 571 1089T524 1116Q488 1116 476 1090T464 961V362Q464 268 476 240T523 211Q559 211 570 237T582 349V961ZM578 1726L337 1416H188L306 1726H578ZM967 1726L727 1416H578L696 1726H967Z"/><glyph unicode="Œ" horiz-adv-x="1410" d="M1339 1619V1295H1055V988H1326V680H1055V324H1373V0H740Q603 -17 551 -17Q423 -17 316 28T157 143T89 287T72 528V1057Q72 1237 86 1321T158 1477T315 1593T558 1636Q641 1636 743 1619H1339ZM634 1110Q634 1160 633 1184Q631 1228 631 1245Q631 1362 561 1362Q520 1362 507 1336T494 1243L493 1170V521Q493 333 503 295T560 257Q606 257 620 300T634 502V1110Z"/><glyph unicode="œ" horiz-adv-x="1567" d="M1506 640H986V343Q986 261 998 236T1047 211Q1090 211 1107 253T1124 390V554H1506V423Q1506 288 1464 198T1313 42T1055 -24Q976 -24 908 -9T782 38Q727 7 663 -8T525 -24Q389 -24 291 19T141 127T74 262T60 495V785Q60 999 87 1094T226 1270T509 1351Q585 1351 653 1331T782 1271Q834 1311 899 1331T1043 1351Q1184 1351 1307 1284T1468 1108T1506 831V640ZM582 925Q582 1054 571 1085T521 1116Q487 1116 476 1087T464 965V387Q464 262 473 237T521 211Q558 211 570 239T582 373V925ZM1102 855V997Q1102 1082 1084 1099T1043 1116Q1010 1116 998 1094T986 997V855H1102Z"/><glyph unicode="Ŕ" horiz-adv-x="1103" d="M84 1619H382Q680 1619 785 1596T957 1479T1024 1177Q1024 988 977 923T792 845Q917 814 960 762T1013 667T1024 427V0H633V538Q633 668 613 699T505 730V0H84V1619ZM505 1342V982Q576 982 604 1001T633 1128V1217Q633 1294 606 1318T505 1342ZM847 2073L518 1802H315L491 2073H847Z"/><glyph unicode="ŕ" horiz-adv-x="733" d="M476 1327L460 1153Q548 1340 715 1351V884Q604 884 552 854T488 771T476 524V0H72V1327H476ZM684 1772L355 1501H152L328 1772H684Z"/><glyph unicode="Ŗ" horiz-adv-x="1103" d="M84 1619H382Q680 1619 785 1596T957 1479T1024 1177Q1024 988 977 923T792 845Q917 814 960 762T1013 667T1024 427V0H633V538Q633 668 613 699T505 730V0H84V1619ZM505 1342V982Q576 982 604 1001T633 1128V1217Q633 1294 606 1318T505 1342ZM415 -80H687V-164Q687 -486 415 -543V-426Q473 -391 482 -336H415V-80Z"/><glyph unicode="ŗ" horiz-adv-x="733" d="M476 1327L460 1153Q548 1340 715 1351V884Q604 884 552 854T488 771T476 524V0H72V1327H476ZM139 176H411V92Q411 -230 139 -287V-170Q197 -135 206 -80H139V176Z"/><glyph unicode="Ř" horiz-adv-x="1103" d="M84 1619H382Q680 1619 785 1596T957 1479T1024 1177Q1024 988 977 923T792 845Q917 814 960 762T1013 667T1024 427V0H633V538Q633 668 613 699T505 730V0H84V1619ZM505 1342V982Q576 982 604 1001T633 1128V1217Q633 1294 606 1318T505 1342ZM525 1821L636 1952H907L666 1670H384L127 1952H407L525 1821Z"/><glyph unicode="ř" horiz-adv-x="733" d="M476 1327L460 1153Q548 1340 715 1351V884Q604 884 552 854T488 771T476 524V0H72V1327H476ZM369 1823L480 1954H751L510 1672H228L-29 1954H251L369 1823Z"/><glyph unicode="Ś" horiz-adv-x="1059" d="M976 1382H585V1502Q585 1586 570 1609T520 1632Q482 1632 463 1601T443 1507Q443 1426 465 1385Q486 1344 584 1286Q865 1119 938 1012Q1011 905 1011 667Q1011 494 971 412T814 275T544 219Q375 219 256 283T99 446T62 727V833H453V636Q453 545 469 519T528 493Q570 493 590 526T611 624Q611 767 572 811Q532 855 375 958Q218 1062 167 1109T83 1239T49 1451Q49 1637 96 1723T250 1857T506 1906Q670 1906 785 1853T938 1720T976 1446V1382ZM851 1941L522 1670H319L495 1941H851Z"/><glyph unicode="ś" horiz-adv-x="964" d="M897 903H539V975Q539 1067 529 1091T476 1116Q442 1116 425 1094T408 1026Q408 965 416 937T467 874T642 775Q818 689 873 613Q928 537 928 392Q928 230 886 148T746 21T508 -24Q354 -24 245 24T94 154T53 402V466H411V382Q411 275 424 243T478 211Q521 211 538 232T555 323Q555 418 533 442Q510 466 298 584Q120 684 81 765T42 959Q42 1118 84 1193T226 1310T460 1351Q592 1351 684 1318T826 1229T886 1127T897 980V903ZM811 1687L482 1416H279L455 1687H811Z"/><glyph unicode="Ŝ" horiz-adv-x="1059" d="M976 1382H585V1502Q585 1586 570 1609T520 1632Q482 1632 463 1601T443 1507Q443 1426 465 1385Q486 1344 584 1286Q865 1119 938 1012Q1011 905 1011 667Q1011 494 971 412T814 275T544 219Q375 219 256 283T99 446T62 727V833H453V636Q453 545 469 519T528 493Q570 493 590 526T611 624Q611 767 572 811Q532 855 375 958Q218 1062 167 1109T83 1239T49 1451Q49 1637 96 1723T250 1857T506 1906Q670 1906 785 1853T938 1720T976 1446V1382ZM507 1801L389 1670H109L366 1952H648L889 1670H618L507 1801Z"/><glyph unicode="ŝ" horiz-adv-x="964" d="M897 903H539V975Q539 1067 529 1091T476 1116Q442 1116 425 1094T408 1026Q408 965 416 937T467 874T642 775Q818 689 873 613Q928 537 928 392Q928 230 886 148T746 21T508 -24Q354 -24 245 24T94 154T53 402V466H411V382Q411 275 424 243T478 211Q521 211 538 232T555 323Q555 418 533 442Q510 466 298 584Q120 684 81 765T42 959Q42 1118 84 1193T226 1310T460 1351Q592 1351 684 1318T826 1229T886 1127T897 980V903ZM464 1803L346 1672H66L323 1954H605L846 1672H575L464 1803Z"/><glyph unicode="Ş" horiz-adv-x="1059" d="M565 -33V-52Q618 -52 663 -87T709 -184Q709 -260 648 -315T500 -371Q343 -371 301 -213H448Q462 -255 499 -255Q558 -255 558 -195Q558 -129 475 -129H448V-27Q287 -5 198 67T85 234T62 474V580H453V383Q453 292 469 266T528 240Q611 240 611 371Q611 514 572 558T375 705Q218 809 167 856T83 986T49 1198Q49 1384 96 1470T250 1604T506 1653Q670 1653 785 1600T938 1467T976 1193V1129H585V1249Q585 1333 570 1356T520 1379Q443 1379 443 1254Q443 1173 464 1132T584 1033Q865 866 938 759T1011 414Q1011 251 977 172T831 31T565 -33Z"/><glyph unicode="ş" horiz-adv-x="964" d="M518 -24V-52Q570 -52 616 -87T662 -184Q662 -260 601 -315T453 -371Q296 -371 253 -213H401Q415 -255 452 -255Q511 -255 511 -195Q511 -129 428 -129H401V-17Q286 -2 208 42T91 160T53 402V466H411V382Q411 275 424 243T478 211Q521 211 538 232T555 323Q555 418 533 442T298 584Q120 684 81 765T42 959Q42 1118 84 1193T226 1310T460 1351Q592 1351 684 1318T826 1229T886 1127T897 980V903H539V975Q539 1067 529 1091T476 1116Q408 1116 408 1026Q408 965 416 937T467 874T642 775Q818 689 873 613T928 392Q928 238 891 158T762 28T518 -24Z"/><glyph unicode="Š" horiz-adv-x="1059" d="M976 1129H585V1249Q585 1333 570 1356T520 1379Q482 1379 463 1348T443 1254Q443 1173 465 1132Q486 1091 584 1033Q865 866 938 759Q1011 652 1011 414Q1011 241 971 159T814 22T544 -34Q375 -34 256 30T99 193T62 474V580H453V383Q453 292 469 266T528 240Q570 240 590 273T611 371Q611 514 572 558Q532 602 375 705Q218 809 167 856T83 986T49 1198Q49 1384 96 1470T250 1604T506 1653Q670 1653 785 1600T938 1467T976 1193V1129ZM537 1821L648 1952H919L678 1670H396L139 1952H419L537 1821Z"/><glyph unicode="š" horiz-adv-x="964" d="M897 903H539V975Q539 1067 529 1091T476 1116Q442 1116 425 1094T408 1026Q408 965 416 937T467 874T642 775Q818 689 873 613Q928 537 928 392Q928 230 886 148T746 21T508 -24Q354 -24 245 24T94 154T53 402V466H411V382Q411 275 424 243T478 211Q521 211 538 232T555 323Q555 418 533 442Q510 466 298 584Q120 684 81 765T42 959Q42 1118 84 1193T226 1310T460 1351Q592 1351 684 1318T826 1229T886 1127T897 980V903ZM490 1567L601 1698H872L631 1416H349L92 1698H372L490 1567Z"/><glyph unicode="Ţ" horiz-adv-x="944" d="M932 1619V1295H682V0H261V1295H12V1619H932ZM538 12V-112Q590 -112 636 -147T682 -244Q682 -320 620 -376T472 -432Q316 -432 273 -274H421Q435 -315 471 -315Q501 -315 515 -300T530 -255Q530 -222 510 -206T447 -189Q438 -189 421 -190V12H538Z"/><glyph unicode="ţ" horiz-adv-x="624" d="M498 1504V1295H607V1085H498V375Q498 244 511 229T624 214V0H461Q323 0 264 11T160 64T104 159T93 411V1085H6V1295H93V1504H498ZM488 260V136Q540 136 586 101T632 4Q632 -72 570 -128T422 -184Q266 -184 223 -26H371Q385 -67 421 -67Q451 -67 465 -52T480 -7Q480 26 460 42T397 59Q388 59 371 58V260H488Z"/><glyph unicode="Ť" horiz-adv-x="944" d="M932 1619V1295H682V0H261V1295H12V1619H932ZM472 1821L583 1952H854L613 1670H331L74 1952H354L472 1821Z"/><glyph unicode="ť" horiz-adv-x="944" d="M498 1504V1295H607V1085H498V375Q498 244 511 229T624 214V0H461Q323 0 264 11T160 64T104 159T93 411V1085H6V1295H93V1504H498ZM672 1619H944V1535Q944 1213 672 1156V1273Q730 1308 739 1363H672V1619Z"/><glyph unicode="Ŧ" horiz-adv-x="944" d="M262 911V1296H12V1620H932V1296H684V911H844V739H684V0H262V739H104V911H262Z"/><glyph unicode="ŧ" horiz-adv-x="623" d="M94 911V1085H6V1294H94V1505H498V1294H606V1085H498V911H604V739H498V375Q498 282 503 254T528 220T625 213V0H461Q334 0 271 10T160 63T103 173T94 412V739H6V911H94Z"/><glyph unicode="Ũ" horiz-adv-x="1120" d="M1041 1635V553Q1041 369 1029 295T958 142T803 23T575 -18Q430 -18 319 30T153 155T88 317T78 677V1635H499V421Q499 315 510 286T557 256Q597 256 608 288T620 442V1635H1041ZM975 1860Q929 1759 862 1719T744 1679Q673 1679 591 1712L517 1741Q446 1770 411 1770Q337 1770 289 1670L131 1775Q241 1969 379 1969Q451 1969 536 1937L598 1914Q676 1885 704 1885Q787 1885 814 1975L975 1860Z"/><glyph unicode="ũ" horiz-adv-x="1070" d="M997 1338V11H586L593 121Q551 54 490 21T348 -13Q257 -13 197 19T109 104T73 214T66 443V1338H470V435Q470 280 479 251T531 222Q576 222 584 252T593 445V1338H997ZM940 1606Q894 1505 827 1465T709 1425Q638 1425 556 1458L482 1487Q411 1516 376 1516Q302 1516 254 1416L96 1521Q206 1715 344 1715Q416 1715 501 1683L563 1660Q641 1631 669 1631Q752 1631 779 1721L940 1606Z"/><glyph unicode="Ū" horiz-adv-x="1120" d="M1041 1635V553Q1041 369 1029 295T958 142T803 23T575 -18Q430 -18 319 30T153 155T88 317T78 677V1635H499V421Q499 315 510 286T557 256Q597 256 608 288T620 442V1635H1041ZM956 1843V1670H160V1843H956Z"/><glyph unicode="ū" horiz-adv-x="1070" d="M997 1327V0H586L593 110Q551 43 490 10T348 -24Q257 -24 197 8T109 93T73 203T66 432V1327H470V424Q470 269 479 240T531 211Q576 211 584 241T593 434V1327H997ZM925 1589V1416H129V1589H925Z"/><glyph unicode="Ŭ" horiz-adv-x="1120" d="M1041 1635V553Q1041 369 1029 295T958 142T803 23T575 -18Q430 -18 319 30T153 155T88 317T78 677V1635H499V421Q499 315 510 286T557 256Q597 256 608 288T620 442V1635H1041ZM669 1972H839Q833 1836 760 1753T555 1670Q423 1670 351 1753T272 1972H442Q454 1835 555 1835Q657 1835 669 1972Z"/><glyph unicode="ŭ" horiz-adv-x="1070" d="M997 1327V0H586L593 110Q551 43 490 10T348 -24Q257 -24 197 8T109 93T73 203T66 432V1327H470V424Q470 269 479 240T531 211Q576 211 584 241T593 434V1327H997ZM645 1718H815Q809 1582 736 1499T531 1416Q399 1416 327 1499T248 1718H418Q430 1581 531 1581Q633 1581 645 1718Z"/><glyph unicode="Ů" horiz-adv-x="1120" d="M1041 1635V553Q1041 369 1029 295T958 142T803 23T575 -18Q430 -18 319 30T153 155T88 317T78 677V1635H499V421Q499 315 510 286T557 256Q597 256 608 288T620 442V1635H1041ZM555 2091Q639 2091 702 2031T765 1880Q765 1793 703 1732T555 1670Q467 1670 406 1731T344 1880Q344 1967 406 2029T555 2091ZM553 1959Q520 1959 496 1935T471 1876Q471 1842 495 1818T553 1794Q587 1794 611 1818T636 1876Q636 1911 612 1935T553 1959Z"/><glyph unicode="ů" horiz-adv-x="1070" d="M997 1327V0H586L593 110Q551 43 490 10T348 -24Q257 -24 197 8T109 93T73 203T66 432V1327H470V424Q470 269 479 240T531 211Q576 211 584 241T593 434V1327H997ZM530 1837Q614 1837 677 1777T740 1626Q740 1539 678 1478T530 1416Q442 1416 381 1477T319 1626Q319 1713 381 1775T530 1837ZM528 1705Q495 1705 471 1681T446 1622Q446 1588 470 1564T528 1540Q562 1540 586 1564T611 1622Q611 1657 587 1681T528 1705Z"/><glyph unicode="Ű" horiz-adv-x="1120" d="M1041 1635V553Q1041 369 1029 295T958 142T803 23T575 -18Q430 -18 319 30T153 155T88 317T78 677V1635H499V421Q499 315 510 286T557 256Q597 256 608 288T620 442V1635H1041ZM597 1980L356 1670H207L325 1980H597ZM986 1980L746 1670H597L715 1980H986Z"/><glyph unicode="ű" horiz-adv-x="1070" d="M997 1327V0H586L593 110Q551 43 490 10T348 -24Q257 -24 197 8T109 93T73 203T66 432V1327H470V424Q470 269 479 240T531 211Q576 211 584 241T593 434V1327H997ZM570 1726L329 1416H180L298 1726H570ZM959 1726L719 1416H570L688 1726H959Z"/><glyph unicode="Ų" horiz-adv-x="1120" d="M494 -2Q364 8 273 48T140 158T88 308T78 537V1620H500V369Q500 282 515 261T559 240Q589 240 605 265T621 391V1620H1042V463Q1042 335 1022 254T947 112T817 27T637 -2Q555 -86 555 -135Q555 -199 627 -199Q677 -199 741 -172L782 -272Q686 -317 608 -317Q517 -317 464 -274T410 -162Q410 -81 494 -2Z"/><glyph unicode="ų" horiz-adv-x="1069" d="M801 0H586L592 111Q547 47 492 23T321 -2Q244 -2 198 13T116 85T73 204T66 432V1327H469V301Q469 211 530 211Q564 211 579 232T594 324V1327H997V0H948Q862 -85 862 -135Q862 -199 934 -199Q984 -199 1049 -172L1090 -272Q993 -317 915 -317Q825 -317 771 -274T717 -162Q717 -79 801 0Z"/><glyph unicode="Ŵ" horiz-adv-x="1668" d="M1668 1619L1481 0H955Q883 373 828 848Q803 645 711 0H188L0 1619H409L452 1054L496 509Q519 932 612 1619H1050Q1059 1548 1096 1085L1142 470Q1177 1057 1259 1619H1668ZM834 1801L716 1670H436L693 1952H975L1216 1670H945L834 1801Z"/><glyph unicode="ŵ" horiz-adv-x="1371" d="M1377 1327L1216 0H777Q741 243 694 640Q678 466 649 288L604 0H165L-6 1327H342Q346 1275 430 568Q436 640 520 1327H855L937 568Q956 900 1029 1327H1377ZM689 1547L571 1416H291L548 1698H830L1071 1416H800L689 1547Z"/><glyph unicode="Ŷ" horiz-adv-x="969" d="M981 1619L674 586V0H284V586L-12 1619H375Q466 1146 477 982Q512 1241 594 1619H981ZM486 1801L368 1670H88L345 1952H627L868 1670H597L486 1801Z"/><glyph unicode="ŷ" horiz-adv-x="918" d="M918 1327L802 367Q775 139 757 56T695 -81T576 -160T331 -186H86V26Q180 26 207 35T234 78Q234 94 209 217L-12 1327H355L487 432L551 1327H918ZM453 1803L335 1672H55L312 1954H594L835 1672H564L453 1803Z"/><glyph unicode="Ÿ" horiz-adv-x="969" d="M981 1619L674 586V0H284V586L-12 1619H375Q466 1146 477 982Q512 1241 594 1619H981ZM397 1930V1670H136V1930H397ZM834 1930V1670H573V1930H834Z"/><glyph unicode="Ź" horiz-adv-x="813" d="M788 1619V1295L474 324H788V0H12V235L336 1295H50V1619H788ZM718 1941L389 1670H186L362 1941H718Z"/><glyph unicode="ź" horiz-adv-x="719" d="M701 1327V1033L403 266H701V0H12V278L317 1061H43V1327H701ZM684 1943L355 1672H152L328 1943H684Z"/><glyph unicode="Ż" horiz-adv-x="813" d="M788 1619V1295L474 324H788V0H12V235L336 1295H50V1619H788ZM546 1930V1670H285V1930H546Z"/><glyph unicode="ż" horiz-adv-x="719" d="M701 1327V1033L403 266H701V0H12V278L317 1061H43V1327H701ZM492 1932V1672H231V1932H492Z"/><glyph unicode="Ž" horiz-adv-x="813" d="M788 1619V1295L474 324H788V0H12V235L336 1295H50V1619H788ZM414 1821L525 1952H796L555 1670H273L16 1952H296L414 1821Z"/><glyph unicode="ž" horiz-adv-x="719" d="M701 1327V1033L403 266H701V0H12V278L317 1061H43V1327H701ZM605 1823L716 1954H987L746 1672H464L207 1954H487L605 1823Z"/><glyph unicode="ſ" horiz-adv-x="590" d="M559 1417Q475 1417 475 1249V0H72V1081Q72 1260 84 1349T151 1511T311 1618T559 1653H584V1417H559Z"/><glyph unicode="ƒ" horiz-adv-x="908" d="M908 1650L866 1438Q809 1438 796 1434T776 1389Q774 1382 767 1347L699 1004H847L799 761H652L519 88Q481 -103 410 -166T133 -229H-48L-5 -16Q56 -16 65 -8T88 67L227 761H88L133 1004H277L337 1316Q372 1499 412 1550T506 1625T694 1650H908Z"/><glyph unicode="Ǻ" horiz-adv-x="1040" d="M811 1619L1052 0H621L600 291H449L424 0H-12L202 1619H811ZM588 578Q556 853 524 1257Q460 793 444 578H588ZM521 2091Q605 2091 668 2031T731 1880Q731 1793 669 1732T521 1670Q433 1670 372 1731T310 1880Q310 1967 372 2029T521 2091ZM519 1959Q486 1959 462 1935T437 1876Q437 1842 461 1818T519 1794Q553 1794 577 1818T602 1876Q602 1911 578 1935T519 1959ZM851 2392L522 2121H319L495 2392H851Z"/><glyph unicode="ǻ" horiz-adv-x="1032" d="M433 813H54V902Q54 1056 89 1139T232 1287T510 1351Q715 1351 819 1279T944 1101T965 666V0H572V118Q535 47 477 12T337 -24Q231 -24 143 35T54 296V405Q54 554 101 608T334 734Q533 812 547 839T561 949Q561 1053 546 1084T494 1116Q453 1116 443 1090T433 952V813ZM561 631Q464 560 449 512T433 374Q433 271 446 241T500 211Q538 211 549 234T561 358V631ZM506 1837Q590 1837 653 1777T716 1626Q716 1539 654 1478T506 1416Q418 1416 357 1477T295 1626Q295 1713 357 1775T506 1837ZM504 1705Q471 1705 447 1681T422 1622Q422 1588 446 1564T504 1540Q538 1540 562 1564T587 1622Q587 1657 563 1681T504 1705ZM825 2154L496 1883H293L469 2154H825Z"/><glyph unicode="Ǽ" horiz-adv-x="1461" d="M1404 1619V1295H1121V988H1387V680H1121V324H1424V0H700V291H458L390 0H-12L414 1619H1404ZM700 1316L521 578H700V1316ZM1159 1941L830 1670H627L803 1941H1159Z"/><glyph unicode="ǽ" horiz-adv-x="1543" d="M1482 640H955V372Q955 270 968 241T1023 211Q1068 211 1084 241T1100 365V554H1482V420Q1482 289 1443 199T1299 43T1044 -24Q904 -24 806 14T651 128Q596 52 521 14T352 -24Q242 -24 171 21T77 135T54 361Q54 501 74 552T159 644T380 740Q463 768 492 787T532 834T543 957Q543 1046 531 1081T486 1116Q454 1116 445 1087T435 940V813H56V912Q56 1022 71 1085T142 1211T283 1313T502 1351Q576 1351 645 1333T777 1279Q823 1315 884 1333T1021 1351Q1173 1351 1282 1285T1437 1116T1482 811V640ZM1078 856V976Q1078 1069 1061 1092T1017 1116Q984 1116 970 1089T955 976V856H1078ZM551 623Q474 567 448 522T421 352Q421 275 436 243T493 211Q522 211 536 231T550 290L551 409V623ZM1090 1687L761 1416H558L734 1687H1090Z"/><glyph unicode="Ǿ" horiz-adv-x="1119" d="M1026 1595Q1046 1519 1046 1203V926Q1046 682 1035 581T963 395T799 266T559 221Q413 221 310 269T144 412L37 272L-55 342L92 534Q72 606 72 926V1203Q72 1447 83 1548T155 1734T319 1863T559 1908Q704 1908 808 1861T974 1717L1081 1857L1173 1788L1026 1595ZM625 1242V1458Q625 1571 613 1602T561 1634Q520 1634 507 1601T493 1458V1068L625 1242ZM493 879V702Q493 561 504 528T558 495Q601 495 613 533T625 714V1054L493 879ZM868 1941L539 1670H336L512 1941H868Z"/><glyph unicode="ǿ" horiz-adv-x="1047" d="M912 1181Q951 1128 968 1066T986 861V536Q986 357 968 274T891 118T740 11T527 -24Q413 -24 329 -3T192 61L161 14L82 65L127 134Q93 190 77 260T60 492V832Q60 1017 100 1121T244 1288T510 1351Q615 1351 699 1326T845 1251L886 1313L964 1262L912 1181ZM582 835V961Q582 1063 571 1089T524 1116Q488 1116 476 1090T464 961V655L582 835ZM464 481V362Q464 268 476 240T523 211Q559 211 570 237T582 349V662L464 481ZM843 1687L514 1416H311L487 1687H843Z"/><glyph unicode="Ș" horiz-adv-x="1059" d="M976 1129H585V1249Q585 1333 570 1356T520 1379Q482 1379 463 1348T443 1254Q443 1173 465 1132Q486 1091 584 1033Q865 866 938 759Q1011 652 1011 414Q1011 241 971 159T814 22T544 -34Q375 -34 256 30T99 193T62 474V580H453V383Q453 292 469 266T528 240Q570 240 590 273T611 371Q611 514 572 558Q532 602 375 705Q218 809 167 856T83 986T49 1198Q49 1384 96 1470T250 1604T506 1653Q670 1653 785 1600T938 1467T976 1193V1129ZM396 -72H668V-156Q668 -478 396 -535V-418Q454 -383 463 -328H396V-72Z"/><glyph unicode="ș" horiz-adv-x="964" d="M897 903H539V975Q539 1067 529 1091T476 1116Q442 1116 425 1094T408 1026Q408 965 416 937T467 874T642 775Q818 689 873 613Q928 537 928 392Q928 230 886 148T746 21T508 -24Q354 -24 245 24T94 154T53 402V466H411V382Q411 275 424 243T478 211Q521 211 538 232T555 323Q555 418 533 442Q510 466 298 584Q120 684 81 765T42 959Q42 1118 84 1193T226 1310T460 1351Q592 1351 684 1318T826 1229T886 1127T897 980V903ZM356 -72H628V-156Q628 -478 356 -535V-418Q414 -383 423 -328H356V-72Z"/><glyph unicode="Ț" horiz-adv-x="944" d="M932 1619V1295H682V0H261V1295H12V1619H932ZM336 -80H608V-164Q608 -486 336 -543V-426Q394 -391 403 -336H336V-80Z"/><glyph unicode="ț" horiz-adv-x="624" d="M498 1504V1295H607V1085H498V375Q498 244 511 229T624 214V0H461Q323 0 264 11T160 64T104 159T93 411V1085H6V1295H93V1504H498ZM206 -80H478V-164Q478 -486 206 -543V-426Q264 -391 273 -336H206V-80Z"/><glyph unicode="ˆ" horiz-adv-x="683" d="M350 1632L232 1501H-48L209 1783H491L732 1501H461L350 1632Z"/><glyph unicode="ˇ" horiz-adv-x="683" d="M350 1652L461 1783H732L491 1501H209L-48 1783H232L350 1652Z"/><glyph unicode="ˉ" horiz-adv-x="683" d="M739 1674V1501H-57V1674H739Z"/><glyph unicode="˘" horiz-adv-x="683" d="M455 1803H625Q619 1667 546 1584T341 1501Q209 1501 137 1584T58 1803H228Q240 1666 341 1666Q443 1666 455 1803Z"/><glyph unicode="˙" horiz-adv-x="683" d="M472 1761V1501H211V1761H472Z"/><glyph unicode="˚" horiz-adv-x="683" d="M342 1922Q426 1922 489 1862T552 1711Q552 1624 490 1563T342 1501Q254 1501 193 1562T131 1711Q131 1798 193 1860T342 1922ZM340 1790Q307 1790 283 1766T258 1707Q258 1673 282 1649T340 1625Q374 1625 398 1649T423 1707Q423 1742 399 1766T340 1790Z"/><glyph unicode="˛" horiz-adv-x="683" d="M262 21H408Q302 -81 302 -134Q302 -166 320 -182T374 -199Q424 -199 488 -173L529 -273Q445 -316 355 -316Q269 -316 213 -275T156 -161Q156 -72 262 21Z"/><glyph unicode="˜" horiz-adv-x="683" d="M763 1691Q717 1590 650 1550T532 1510Q461 1510 379 1543L305 1572Q234 1601 199 1601Q125 1601 77 1501L-81 1606Q29 1800 167 1800Q239 1800 324 1768L386 1745Q464 1716 492 1716Q575 1716 602 1806L763 1691Z"/><glyph unicode="˝" horiz-adv-x="683" d="M414 1811L173 1501H24L142 1811H414ZM803 1811L563 1501H414L532 1811H803Z"/><glyph unicode=";" horiz-adv-x="414" d="M377 1054V725H72V1054H377ZM360 317V172Q360 58 333 -15T240 -139T89 -207V-91Q149 -57 157 0H89V317H360Z"/><glyph unicode="΄" horiz-adv-x="682" d="M250 1620H524L399 1350H197L250 1620Z"/><glyph unicode="΅" horiz-adv-x="682" d="M256 2124H530L406 1853H203L256 2124ZM-6 1761H250V1501H-6V1761ZM428 1761H690V1501H428V1761Z"/><glyph unicode="Ά" horiz-adv-x="1040" d="M811 1619L1052 0H621L600 291H449L424 0H-12L202 1619H811ZM588 578Q556 853 524 1257Q460 793 444 578H588ZM-110 1620H164L39 1350H-163L-110 1620Z"/><glyph unicode="·" horiz-adv-x="450" d="M377 972V642H72V972H377Z"/><glyph unicode="Έ" horiz-adv-x="1100" d="M334 1619H1036V1295H755V988H1018V680H755V324H1064V0H334V1619ZM37 1620H311L186 1350H-16L37 1620Z"/><glyph unicode="Ή" horiz-adv-x="1386" d="M1302 1619V0H881V680H755V0H334V1619H755V1040H881V1619H1302ZM37 1620H311L186 1350H-16L37 1620Z"/><glyph unicode="Ί" horiz-adv-x="840" d="M755 1619V0H334V1619H755ZM37 1620H311L186 1350H-16L37 1620Z"/><glyph unicode="Ό" horiz-adv-x="1311" d="M1226 672Q1226 428 1215 327T1143 141T979 12T739 -33Q609 -33 506 9T339 137T264 322T252 672V949Q252 1193 263 1294T335 1480T499 1609T739 1654Q869 1654 972 1612T1139 1484T1214 1299T1226 949V672ZM805 1204Q805 1317 793 1348T741 1380Q708 1380 691 1355T673 1204V448Q673 307 684 274T738 241Q781 241 793 279T805 460V1204ZM37 1620H311L186 1350H-16L37 1620Z"/><glyph unicode="Ύ" horiz-adv-x="1311" d="M1321 1619L1014 586V0H624V586L328 1619H715Q806 1146 817 982Q852 1241 934 1619H1321ZM37 1620H311L186 1350H-16L37 1620Z"/><glyph unicode="Ώ" horiz-adv-x="1341" d="M740 246V0H254V244H316Q362 244 474 233Q386 291 332 404T277 668V1051Q277 1261 287 1331T353 1481T508 1596T764 1632Q909 1632 1011 1598T1174 1488T1246 1340T1258 1051V668Q1258 518 1204 405T1061 233Q1154 244 1211 244H1280V0H795V246Q836 286 836 453V1219Q836 1338 822 1367T771 1397Q731 1397 715 1369T699 1219V453Q699 286 740 246ZM37 1620H311L186 1350H-16L37 1620Z"/><glyph unicode="ΐ" horiz-adv-x="623" d="M72 379V1327H475V358Q475 288 500 249T608 209V0H543Q336 0 246 19T114 117T72 379ZM446 2295H720L596 2024H393L446 2295ZM184 1932H440V1672H184V1932ZM618 1932H880V1672H618V1932Z"/><glyph unicode="Α" horiz-adv-x="1040" d="M811 1619L1052 0H621L600 291H449L424 0H-12L202 1619H811ZM588 578Q556 853 524 1257Q460 793 444 578H588Z"/><glyph unicode="Β" horiz-adv-x="1131" d="M84 1619H504Q703 1619 805 1588T971 1463T1034 1158Q1034 1016 990 960T814 874Q960 841 1012 765T1064 530V380Q1064 216 1027 137T907 29T571 0H84V1619ZM505 1342V982Q532 983 547 983Q609 983 626 1013T643 1188Q643 1264 629 1294T593 1333T505 1342ZM505 730V277Q594 280 618 305T643 428V579Q643 683 621 705T505 730Z"/><glyph unicode="Γ" horiz-adv-x="778" d="M84 0V1620H760V1298H506V0H84Z"/><glyph unicode="Δ" horiz-adv-x="1040" d="M203 1620H811L1053 0H-12L203 1620ZM444 289H588Q588 320 562 756T524 1257Q513 1192 479 751T444 289Z"/><glyph unicode="Ε" horiz-adv-x="851" d="M84 1619H786V1295H505V988H768V680H505V324H814V0H84V1619Z"/><glyph unicode="Ζ" horiz-adv-x="813" d="M788 1619V1295L474 324H788V0H12V235L336 1295H50V1619H788Z"/><glyph unicode="Η" horiz-adv-x="1137" d="M1052 1619V0H631V680H505V0H84V1619H505V1040H631V1619H1052Z"/><glyph unicode="Θ" horiz-adv-x="1118" d="M1047 664Q1047 402 1031 296T951 120T790 19T559 -12Q435 -12 342 15T187 101T104 228T78 396T72 664V965Q72 1224 87 1330T166 1505T327 1603T559 1632Q694 1632 791 1604T951 1508T1030 1331T1047 965V664ZM625 934V1219Q625 1321 615 1359T559 1397Q523 1397 509 1367T494 1219V934H625ZM494 698V362Q494 300 505 266T557 231Q592 231 608 259T625 391V698H494Z"/><glyph unicode="Ι" horiz-adv-x="590" d="M84 0V1620H506V0H84Z"/><glyph unicode="Κ" horiz-adv-x="1099" d="M1087 1619L846 888L1110 0H675L505 694V0H84V1619H505V990L692 1619H1087Z"/><glyph unicode="Λ" horiz-adv-x="1073" d="M1085 0H641Q575 566 532 1133Q492 566 434 0H-10L203 1620H842L1085 0Z"/><glyph unicode="Μ" horiz-adv-x="1468" d="M1383 1619V0H1015V1093L868 0H607L452 1068V0H84V1619H629Q653 1473 680 1275L738 863L834 1619H1383Z"/><glyph unicode="Ν" horiz-adv-x="1109" d="M1024 1619V0H655L436 736V0H84V1619H436L672 890V1619H1024Z"/><glyph unicode="Ξ" horiz-adv-x="944" d="M33 1296V1620H911V1296H33ZM115 666V989H829V666H115ZM33 0V324H911V0H33Z"/><glyph unicode="Ο" horiz-adv-x="1119" d="M1046 671Q1046 427 1035 326T963 140T799 11T559 -34Q429 -34 326 8T159 136T84 321T72 671V948Q72 1192 83 1293T155 1479T319 1608T559 1653Q689 1653 792 1611T959 1483T1034 1298T1046 948V671ZM625 1203Q625 1316 613 1347T561 1379Q528 1379 511 1354T493 1203V447Q493 306 504 273T558 240Q601 240 613 278T625 459V1203Z"/><glyph unicode="Π" horiz-adv-x="1137" d="M631 1296H506V0H84V1620H1053V0H631V1296Z"/><glyph unicode="Ρ" horiz-adv-x="1028" d="M506 0H84V1620H508Q665 1620 754 1600T904 1519T977 1386T991 1165V1026Q991 783 894 717T618 651H506V0ZM639 1077V1208Q639 1290 614 1315T506 1341V930H537Q594 930 616 957T639 1077Z"/><glyph unicode="Σ" horiz-adv-x="807" d="M446 324H768V0H-18L258 868L-23 1620H762V1296H451L618 866L446 324Z"/><glyph unicode="Τ" horiz-adv-x="944" d="M932 1619V1295H682V0H261V1295H12V1619H932Z"/><glyph unicode="Υ" horiz-adv-x="969" d="M981 1619L674 586V0H284V586L-12 1619H375Q466 1146 477 982Q512 1241 594 1619H981Z"/><glyph unicode="Φ" horiz-adv-x="1632" d="M1599 793Q1599 634 1584 564Q1563 467 1495 389Q1389 268 1096 268H1022V0H600V268H535Q241 268 135 389Q67 467 46 564Q31 634 31 793V821Q31 980 46 1050Q67 1147 135 1225Q240 1343 535 1343Q557 1343 600 1346V1620H1022V1346Q1073 1343 1096 1343Q1391 1343 1495 1225Q1563 1147 1584 1050Q1599 980 1599 821V793ZM1178 702V911Q1178 994 1146 1044T1065 1094H1022V520H1065Q1113 520 1145 570T1178 702ZM600 520V1094H565Q518 1094 486 1044T453 911V702Q453 620 485 570T565 520H600Z"/><glyph unicode="Χ" horiz-adv-x="988" d="M937 1619L790 903L1012 0H622Q552 242 494 589Q478 436 450 264L410 0H0L152 903L0 1619H407Q418 1552 451 1396Q477 1277 494 1178L584 1619H937Z"/><glyph unicode="Ψ" horiz-adv-x="1608" d="M594 1620H1016V834Q1077 836 1113 872T1149 967V1386Q1149 1562 1217 1620H1606Q1550 1545 1550 1360V956Q1550 775 1444 680T1151 584H1016V0H594V584H459Q273 584 166 679T59 956V1360Q59 1545 4 1620H393Q461 1562 461 1386V967Q461 909 497 873T594 834V1620Z"/><glyph unicode="Ω" horiz-adv-x="1149" d="M547 246V0H61V244H123Q169 244 281 233Q193 291 139 404T84 668V1051Q84 1261 94 1331T160 1481T315 1596T571 1632Q716 1632 818 1598T981 1488T1053 1340T1065 1051V668Q1065 518 1011 405T868 233Q961 244 1018 244H1087V0H602V246Q643 286 643 453V1219Q643 1338 629 1367T578 1397Q538 1397 522 1369T506 1219V453Q506 286 547 246Z"/><glyph unicode="Ϊ" horiz-adv-x="590" d="M505 1619V0H84V1619H505ZM206 1930V1670H-55V1930H206ZM643 1930V1670H382V1930H643Z"/><glyph unicode="Ϋ" horiz-adv-x="969" d="M981 1619L674 586V0H284V586L-12 1619H375Q466 1146 477 982Q512 1241 594 1619H981ZM398 1930V1670H137V1930H398ZM835 1930V1670H574V1930H835Z"/><glyph unicode="ά" horiz-adv-x="1073" d="M59 342V989Q59 1103 68 1160T116 1266T204 1327T336 1339Q504 1339 612 1210Q626 1272 670 1327H1051Q991 1189 991 987V516Q991 184 1102 0H694Q634 71 616 131Q569 64 490 26T332 -12Q229 -12 162 25T77 132T59 342ZM463 1049V334Q463 263 472 232T520 201Q567 201 577 236T588 369V1010Q588 1089 572 1111T524 1133Q463 1133 463 1049ZM456 1686H730L605 1416H403L456 1686Z"/><glyph unicode="έ" horiz-adv-x="1057" d="M1016 319Q1016 138 900 63T512 -12Q51 -12 51 334V416Q51 522 122 595T311 696Q206 708 134 780T61 948V1028Q61 1181 181 1260T526 1339Q754 1339 873 1263T993 1040V889H635V1008Q635 1075 614 1100T549 1126Q499 1126 477 1097T455 997Q455 911 501 863T623 809V606Q547 599 501 541T455 381Q455 278 474 240T537 201Q597 201 613 236T629 369V475H1016V319ZM456 1686H730L605 1416H403L456 1686Z"/><glyph unicode="ή" horiz-adv-x="1071" d="M426 1327Q469 1274 475 1210Q557 1339 729 1339Q808 1339 860 1321T950 1251T995 1132T1004 930V-186H600V926Q600 1056 592 1089T541 1122Q494 1122 485 1081T475 903V0H72V1145Q72 1240 14 1327H426ZM456 1686H730L605 1416H403L456 1686Z"/><glyph unicode="ί" horiz-adv-x="623" d="M72 379V1327H475V358Q475 288 500 249T608 209V0H543Q336 0 246 19T114 117T72 379ZM450 1686H724L599 1416H397L450 1686Z"/><glyph unicode="ΰ" horiz-adv-x="1069" d="M1004 1327V414Q1004 258 962 166T824 31T537 -12Q268 -12 170 92T72 424V1327H475V293Q475 203 537 203Q570 203 585 224T600 315V1327H1004ZM456 2039H730L606 1768H403L456 2039ZM194 1676H450V1416H194V1676ZM628 1676H890V1416H628V1676Z"/><glyph unicode="α" horiz-adv-x="1073" d="M59 342V989Q59 1103 68 1160T116 1266T204 1327T336 1339Q504 1339 612 1210Q626 1272 670 1327H1051Q991 1189 991 987V516Q991 184 1102 0H694Q634 71 616 131Q569 64 490 26T332 -12Q229 -12 162 25T77 132T59 342ZM463 1049V334Q463 263 472 232T520 201Q567 201 577 236T588 369V1010Q588 1089 572 1111T524 1133Q463 1133 463 1049Z"/><glyph unicode="β" horiz-adv-x="1077" d="M475 106V-186H72V1235Q72 1417 192 1518T530 1620Q752 1620 873 1536T995 1290V1128Q995 1033 923 960T745 874Q868 851 943 787T1018 629V340Q1018 188 942 91T729 -6Q568 -6 475 106ZM475 274Q475 261 499 236T545 211Q573 211 587 231T602 311V653Q602 712 590 749T514 797V973Q574 976 588 1019T602 1124V1307Q602 1367 584 1387T532 1407Q475 1407 475 1296V274Z"/><glyph unicode="γ" horiz-adv-x="1024" d="M1034 1327L725 203V-186H322V209L96 958Q66 1062 44 1089T-12 1116V1335Q18 1339 41 1339Q175 1339 243 1312T350 1217T430 996L514 682L674 1327H1034Z"/><glyph unicode="δ" horiz-adv-x="1044" d="M360 1147L90 1407V1620H913V1411H553Q828 1197 906 1055T985 705V526Q985 345 967 257T884 104T727 13T460 -12Q372 -12 315 -2T200 48T110 148T69 284T59 481V668Q59 773 67 837T112 967T213 1078T360 1147ZM582 797Q582 904 568 928T522 952Q492 952 478 929T463 797V315Q463 201 522 201Q548 201 565 221T582 272V797Z"/><glyph unicode="ε" horiz-adv-x="1057" d="M1016 319Q1016 138 900 63T512 -12Q51 -12 51 334V416Q51 522 122 595T311 696Q206 708 134 780T61 948V1028Q61 1181 181 1260T526 1339Q754 1339 873 1263T993 1040V889H635V1008Q635 1075 614 1100T549 1126Q499 1126 477 1097T455 997Q455 911 501 863T623 809V606Q547 599 501 541T455 381Q455 278 474 240T537 201Q597 201 613 236T629 369V475H1016V319Z"/><glyph unicode="ζ" horiz-adv-x="786" d="M53 852Q53 984 127 1106T420 1411H61V1620H764V1417Q585 1264 521 1147T457 877V627Q457 583 465 557T489 521T561 496Q680 465 727 384T774 170Q774 -10 705 -98T463 -186H266V41H424Q489 41 507 65T526 137Q526 185 505 211T430 248L222 287Q159 299 122 331T69 424T53 610V852Z"/><glyph unicode="η" horiz-adv-x="1071" d="M426 1327Q469 1274 475 1210Q557 1339 729 1339Q808 1339 860 1321T950 1251T995 1132T1004 930V-186H600V926Q600 1056 592 1089T541 1122Q494 1122 485 1081T475 903V0H72V1145Q72 1240 14 1327H426Z"/><glyph unicode="θ" horiz-adv-x="1047" d="M76 481V1128Q76 1246 90 1331T160 1489T309 1596T526 1632Q659 1632 758 1597T916 1492T988 1352T1001 1157V526Q1001 345 983 257T900 104T744 13T476 -12Q389 -12 332 -2T216 48T126 148T85 284T76 481ZM598 922V1257Q598 1354 589 1388T539 1423Q498 1423 489 1388T479 1257V922H598ZM479 702V315Q479 190 539 190Q563 190 580 215T598 272V702H479Z"/><glyph unicode="ι" horiz-adv-x="623" d="M72 379V1327H475V358Q475 288 500 249T608 209V0H543Q336 0 246 19T114 117T72 379Z"/><glyph unicode="κ" horiz-adv-x="1069" d="M1077 0H643L475 530V0H72V1327H475V827Q595 1088 624 1146T698 1253T798 1317T930 1333Q987 1333 1057 1325V1116Q1003 1116 974 1093T924 1027L793 743L1077 0Z"/><glyph unicode="λ" horiz-adv-x="995" d="M-2 0L219 1219Q233 1297 233 1348Q233 1411 150 1411H96V1620H342Q546 1620 635 1575T755 1426T813 1069L893 309Q899 244 911 230T942 215Q957 215 995 217V2Q878 -12 764 -12Q569 -12 553 217L498 1004L365 0H-2Z"/><glyph unicode="μ" horiz-adv-x="1079" d="M72 1327H475V301Q475 211 537 211Q570 211 585 232T600 324V1327H1004V0H592L598 111Q543 35 475 14V-170H72V1327Z"/><glyph unicode="ν" horiz-adv-x="895" d="M907 1327L718 0H191L-12 1327H349L462 359Q475 465 506 879Q524 1110 546 1327H907Z"/><glyph unicode="ξ" horiz-adv-x="782" d="M248 852Q61 937 61 1098Q61 1156 85 1204T156 1293T253 1363T332 1411H57V1620H768V1417Q617 1352 527 1273T436 1120Q436 1042 493 1003T631 963V764Q453 732 453 608Q453 573 461 551T486 520T557 496Q676 465 723 384T770 170Q770 -10 701 -98T459 -186H262V41H420Q482 41 502 62T522 139Q522 189 500 213T428 247L213 289Q49 319 49 569Q49 682 95 748T248 852Z"/><glyph unicode="ο" horiz-adv-x="1047" d="M986 861V536Q986 357 968 274T891 118T740 11T527 -24Q393 -24 300 5T156 94T82 238T60 492V832Q60 1017 100 1121T244 1288T510 1351Q646 1351 743 1311T894 1205T966 1071T986 861ZM582 961Q582 1063 571 1089T524 1116Q488 1116 476 1090T464 961V362Q464 268 476 240T523 211Q559 211 570 237T582 349V961Z"/><glyph unicode="π" horiz-adv-x="1114" d="M1108 1327V1098H1024V0H621V1098H496V0H92V1098H6V1327H1108Z"/><glyph unicode="ρ" horiz-adv-x="1059" d="M475 8V-190H72V836Q72 953 86 1038T156 1196T305 1303T522 1339Q655 1339 754 1304T912 1199T984 1059T997 864V459Q997 219 930 110T684 0Q589 0 475 8ZM475 965V215Q508 213 535 213Q560 213 577 233T594 285V965Q594 1057 585 1088T535 1120Q493 1120 484 1088T475 965Z"/><glyph unicode="ς" horiz-adv-x="793" d="M457 627Q457 583 465 557T489 521T561 496Q680 465 727 384T774 170Q774 -10 705 -98T463 -186H266V41H424Q488 41 507 60T526 143Q526 193 508 214T430 248L213 292Q158 303 122 336T69 432T53 610V885Q53 1101 150 1220T420 1339Q521 1339 727 1325V1120Q643 1126 590 1126Q522 1126 490 1079T457 913V627Z"/><glyph unicode="σ" horiz-adv-x="1065" d="M1073 1327V1100H956Q985 1041 985 838V526Q985 345 967 257T884 104T727 13T460 -12Q372 -12 315 -2T200 48T110 148T69 284T59 481V823Q59 943 74 1027T147 1184T297 1291T510 1327H1073ZM582 272V938Q582 1031 573 1062T522 1094Q481 1094 472 1062T463 938V315Q463 201 522 201Q548 201 565 221T582 272Z"/><glyph unicode="τ" horiz-adv-x="752" d="M745 1327V1098H578V358Q578 288 603 249T711 209V0H645Q439 0 349 19T216 117T174 379V1098H6V1327H745Z"/><glyph unicode="υ" horiz-adv-x="1069" d="M1004 1327V414Q1004 258 962 166T824 31T537 -12Q268 -12 170 92T72 424V1327H475V293Q475 203 537 203Q570 203 585 224T600 315V1327H1004Z"/><glyph unicode="φ" horiz-adv-x="1573" d="M61 936Q61 1133 194 1234T565 1335V1122Q526 1122 496 1080T465 969V303Q465 213 547 213H588V836Q588 953 602 1038T672 1196T821 1303T1038 1339Q1171 1339 1270 1304T1428 1199T1500 1059T1513 864V459Q1513 344 1480 235T1334 63T1065 0H991V-190H588V0H512Q355 0 244 61T97 233T61 451V936ZM1110 303V965Q1110 1070 1095 1095T1051 1120Q1021 1120 1006 1092T991 965V213H1030Q1067 213 1088 239T1110 303Z"/><glyph unicode="χ" horiz-adv-x="1018" d="M147 995Q130 1066 114 1092T53 1118Q42 1118 20 1116V1321Q113 1335 227 1335Q327 1335 375 1281T443 1120L500 801L612 1327H971L770 590L849 275Q891 108 896 91T914 56T941 29T1004 18V-182Q886 -197 772 -197Q687 -197 638 -142T567 25L492 414L365 -190H20L242 610L147 995Z"/><glyph unicode="ψ" horiz-adv-x="1516" d="M479 252Q272 252 163 363T53 711V1065Q53 1250 -2 1327H367Q434 1267 434 1092V584Q434 534 463 500T535 465H557V1620H958V465H981Q1023 465 1052 500T1081 584V1092Q1081 1267 1149 1327H1518Q1462 1250 1462 1065V711Q1462 599 1430 490T1295 317T1036 252H958V-190H557V252H479Z"/><glyph unicode="ω" horiz-adv-x="1604" d="M1128 954Q1128 1096 995 1108L950 1112V1329Q1000 1333 1028 1333Q1252 1333 1368 1271Q1532 1182 1532 961V453Q1532 265 1499 186Q1450 69 1336 23Q1248 -12 1094 -12Q996 -12 912 38T801 168Q780 90 693 40T500 -10Q190 -12 100 203Q72 271 72 451V958Q72 1180 235 1268Q352 1331 575 1331Q604 1331 653 1327V1110L608 1106Q475 1094 475 952V301Q475 203 537 203Q600 203 600 270V940H1004V268Q1004 241 1025 222T1073 203Q1128 203 1128 303V952V954Z"/><glyph unicode="ϊ" horiz-adv-x="623" d="M72 379V1327H475V358Q475 288 500 249T608 209V0H543Q336 0 246 19T114 117T72 379ZM478 1932V1672H217V1932H478ZM915 1932V1672H654V1932H915Z"/><glyph unicode="ϋ" horiz-adv-x="1069" d="M1004 1327V414Q1004 258 962 166T824 31T537 -12Q268 -12 170 92T72 424V1327H475V293Q475 203 537 203Q570 203 585 224T600 315V1327H1004ZM445 1676V1416H184V1676H445ZM882 1676V1416H621V1676H882Z"/><glyph unicode="ό" horiz-adv-x="1047" d="M986 861V536Q986 357 968 274T891 118T740 11T527 -24Q393 -24 300 5T156 94T82 238T60 492V832Q60 1017 100 1121T244 1288T510 1351Q646 1351 743 1311T894 1205T966 1071T986 861ZM582 961Q582 1063 571 1089T524 1116Q488 1116 476 1090T464 961V362Q464 268 476 240T523 211Q559 211 570 237T582 349V961ZM438 1686H712L587 1416H385L438 1686Z"/><glyph unicode="ύ" horiz-adv-x="1069" d="M1004 1327V414Q1004 258 962 166T824 31T537 -12Q268 -12 170 92T72 424V1327H475V293Q475 203 537 203Q570 203 585 224T600 315V1327H1004ZM456 1686H730L605 1416H403L456 1686Z"/><glyph unicode="ώ" horiz-adv-x="1604" d="M1128 954Q1128 1096 995 1108L950 1112V1329Q1000 1333 1028 1333Q1252 1333 1368 1271Q1532 1182 1532 961V453Q1532 265 1499 186Q1450 69 1336 23Q1248 -12 1094 -12Q996 -12 912 38T801 168Q780 90 693 40T500 -10Q190 -12 100 203Q72 271 72 451V958Q72 1180 235 1268Q352 1331 575 1331Q604 1331 653 1327V1110L608 1106Q475 1094 475 952V301Q475 203 537 203Q600 203 600 270V940H1004V268Q1004 241 1025 222T1073 203Q1128 203 1128 303V952V954ZM721 1686H995L870 1416H668L721 1686Z"/><glyph unicode="Ё" horiz-adv-x="851" d="M84 1619H786V1295H505V988H768V680H505V324H814V0H84V1619ZM370 1930V1670H109V1930H370ZM807 1930V1670H546V1930H807Z"/><glyph unicode="Ђ" horiz-adv-x="1354" d="M1270 360Q1270 138 1196 69T899 0H758V279Q811 279 829 310T848 406V698Q848 832 832 863T776 895Q682 895 682 733V0H260V1337H10V1620H930V1337H682V989Q724 1052 809 1085T995 1118Q1075 1118 1143 1080T1240 973T1270 772V360Z"/><glyph unicode="Ѓ" horiz-adv-x="844" d="M815 1296H506V0H84V1620H815V1296ZM788 1941L459 1670H256L432 1941H788Z"/><glyph unicode="Є" horiz-adv-x="1135" d="M1055 457Q1055 212 933 100T547 -12Q309 -12 197 96T84 440V1233Q84 1632 557 1632Q838 1632 946 1541T1055 1239V1102H651V1288Q651 1384 578 1384Q542 1384 524 1358T506 1245V965H748V729H506V461Q506 328 517 283T582 238Q651 238 651 336V584H1055V457Z"/><glyph unicode="Ѕ" horiz-adv-x="1059" d="M976 1129H585V1249Q585 1333 570 1356T520 1379Q482 1379 463 1348T443 1254Q443 1173 465 1132Q486 1091 584 1033Q865 866 938 759Q1011 652 1011 414Q1011 241 971 159T814 22T544 -34Q375 -34 256 30T99 193T62 474V580H453V383Q453 292 469 266T528 240Q570 240 590 273T611 371Q611 514 572 558Q532 602 375 705Q218 809 167 856T83 986T49 1198Q49 1384 96 1470T250 1604T506 1653Q670 1653 785 1600T938 1467T976 1193V1129Z"/><glyph unicode="І" horiz-adv-x="590" d="M505 1619V0H84V1619H505Z"/><glyph unicode="Ї" horiz-adv-x="590" d="M505 1619V0H84V1619H505ZM204 1930V1670H-57V1930H204ZM641 1930V1670H380V1930H641Z"/><glyph unicode="Ј" horiz-adv-x="678" d="M599 1619V537Q599 294 594 225T549 99T439 22T229 0H18V283Q56 280 73 280Q118 280 144 302T174 356T178 480V1619H599Z"/><glyph unicode="Љ" horiz-adv-x="1720" d="M1671 379Q1671 198 1624 119T1482 20T1178 0H690V1296H567V379Q567 198 521 119T379 20T76 0H10V279Q87 279 116 298T145 428V1620H1112V1065H1178Q1372 1065 1472 1042T1621 941T1671 694V379ZM1249 428V662Q1249 764 1229 786T1112 811V279Q1192 279 1220 299T1249 428Z"/><glyph unicode="Њ" horiz-adv-x="1663" d="M1610 379Q1610 198 1563 119T1421 20T1116 0H629V680H506V0H84V1620H506V1040H629V1620H1051V1065H1116Q1311 1065 1410 1042T1560 941T1610 694V379ZM1188 428V662Q1188 764 1168 786T1051 811V279Q1131 279 1159 299T1188 428Z"/><glyph unicode="Ћ" horiz-adv-x="1354" d="M682 983Q725 1048 811 1083T995 1118Q1112 1118 1175 1072T1254 949T1270 709V0H848V698Q848 832 832 863T776 895Q682 895 682 733V0H260V1337H10V1620H930V1337H682V983Z"/><glyph unicode="Ќ" horiz-adv-x="1098" d="M84 1620H506L508 936Q627 939 631 1068L639 1384Q643 1559 707 1620H1096Q1039 1561 1040 1376L1042 1098Q1044 846 758 811Q1044 776 1042 520L1040 262Q1039 78 1096 0H707Q639 61 639 236V552Q639 612 603 648T508 686L506 0H84V1620ZM502 1789H776L651 1519H449L502 1789Z"/><glyph unicode="Ў" horiz-adv-x="918" d="M918 1620L803 547Q776 293 745 191T625 44T332 0H86V209H111Q194 209 213 222T233 264Q233 266 209 401L-12 1620H354L487 612L551 1620H918ZM581 1972H751Q745 1836 672 1753T467 1670Q335 1670 263 1753T184 1972H354Q366 1835 467 1835Q569 1835 581 1972Z"/><glyph unicode="Џ" horiz-adv-x="1137" d="M1053 0H717V-279H426V0H84V1620H506V324H631V1620H1053V0Z"/><glyph unicode="А" horiz-adv-x="1040" d="M811 1619L1052 0H621L600 291H449L424 0H-12L202 1619H811ZM588 578Q556 853 524 1257Q460 793 444 578H588Z"/><glyph unicode="Б" horiz-adv-x="1130" d="M1065 379Q1065 198 1018 119T876 20T571 0H84V1620H909V1339H506V1065H571Q766 1065 866 1042T1015 941T1065 694V379ZM643 428V662Q643 764 623 786T506 811V279Q586 279 614 299T643 428Z"/><glyph unicode="В" horiz-adv-x="1131" d="M84 1619H504Q703 1619 805 1588T971 1463T1034 1158Q1034 1016 990 960T814 874Q960 841 1012 765T1064 530V380Q1064 216 1027 137T907 29T571 0H84V1619ZM505 1342V982Q532 983 547 983Q609 983 626 1013T643 1188Q643 1264 629 1294T593 1333T505 1342ZM505 730V277Q594 280 618 305T643 428V579Q643 683 621 705T505 730Z"/><glyph unicode="Г" horiz-adv-x="844" d="M815 1296H506V0H84V1620H815V1296Z"/><glyph unicode="Д" horiz-adv-x="1335" d="M1288 -279H997V0H317V-279H27V338H113Q181 537 224 861T268 1571V1620H1202V340H1288V-279ZM780 340V1300H655V1288Q655 823 555 340H780Z"/><glyph unicode="Е" horiz-adv-x="851" d="M84 1619H786V1295H505V988H768V680H505V324H814V0H84V1619Z"/><glyph unicode="Ж" horiz-adv-x="1516" d="M549 696Q416 693 416 582V156Q416 71 398 36T371 0H23Q68 65 68 193V557Q68 673 132 734T354 821V823Q70 838 70 1087V1430Q70 1557 25 1620H373Q388 1614 403 1577T418 1466V1063Q418 952 549 948V1620H971V948Q1104 952 1104 1063V1466Q1104 1550 1122 1585T1149 1620H1497Q1452 1557 1452 1430V1087Q1452 838 1167 823V821Q1324 795 1389 734T1454 557V193Q1454 65 1499 0H1151Q1135 7 1121 45T1106 156V582Q1106 693 971 696V0H549V696Z"/><glyph unicode="З" horiz-adv-x="1086" d="M831 917Q923 886 968 816T1013 485Q1013 292 969 186T817 24T540 -32Q348 -32 239 32T95 190T60 515V643H464V380Q464 275 476 247T532 218Q579 218 594 254T609 442V554Q609 647 588 690T526 746T367 762V997Q511 997 545 1008T594 1056T609 1172V1262Q609 1347 592 1374T537 1401Q495 1401 480 1373T464 1251V1118H60V1256Q60 1488 166 1569T503 1651Q792 1651 895 1538T998 1224Q998 1088 961 1028T831 917Z"/><glyph unicode="И" horiz-adv-x="1108" d="M1024 0H672V737L453 0H84V1620H436V889L672 1620H1024V0Z"/><glyph unicode="Й" horiz-adv-x="1108" d="M1024 0H672V737L453 0H84V1620H436V889L672 1620H1024V0ZM665 1972H835Q829 1836 756 1753T551 1670Q419 1670 347 1753T268 1972H438Q450 1835 551 1835Q653 1835 665 1972Z"/><glyph unicode="К" horiz-adv-x="1098" d="M84 1620H506L508 936Q627 939 631 1068L639 1384Q643 1559 707 1620H1096Q1039 1561 1040 1376L1042 1098Q1044 846 758 811Q1044 776 1042 520L1040 262Q1039 78 1096 0H707Q639 61 639 236V552Q639 612 603 648T508 686L506 0H84V1620Z"/><glyph unicode="Л" horiz-adv-x="1196" d="M1112 0H690V1296H567V379Q567 198 521 119T379 20T76 0H10V279Q87 279 116 298T145 428V1620H1112V0Z"/><glyph unicode="М" horiz-adv-x="1468" d="M1383 1619V0H1015V1093L868 0H607L452 1068V0H84V1619H629Q653 1473 680 1275L738 863L834 1619H1383Z"/><glyph unicode="Н" horiz-adv-x="1137" d="M1052 1619V0H631V680H505V0H84V1619H505V1040H631V1619H1052Z"/><glyph unicode="О" horiz-adv-x="1119" d="M1046 671Q1046 427 1035 326T963 140T799 11T559 -34Q429 -34 326 8T159 136T84 321T72 671V948Q72 1192 83 1293T155 1479T319 1608T559 1653Q689 1653 792 1611T959 1483T1034 1298T1046 948V671ZM625 1203Q625 1316 613 1347T561 1379Q528 1379 511 1354T493 1203V447Q493 306 504 273T558 240Q601 240 613 278T625 459V1203Z"/><glyph unicode="П" horiz-adv-x="1137" d="M1053 0H631V1296H506V0H84V1620H1053V0Z"/><glyph unicode="Р" horiz-adv-x="1028" d="M84 1619H508Q680 1619 772 1592T911 1514T974 1391T991 1166V1025Q991 870 959 799T842 690T618 652H505V0H84V1619ZM505 1342V930Q523 929 536 929Q594 929 616 957T639 1076V1209Q639 1292 613 1317T505 1342Z"/><glyph unicode="С" horiz-adv-x="1134" d="M1067 913H646V1195Q646 1318 633 1348T573 1379Q521 1379 507 1342T493 1182V430Q493 312 507 276T570 240Q617 240 631 276T646 445V648H1067V585Q1067 334 1032 229T875 45T575 -34Q390 -34 270 33T111 218T72 575V1048Q72 1223 84 1310T155 1479T320 1606T563 1653Q749 1653 870 1581T1029 1402T1067 1067V913Z"/><glyph unicode="Т" horiz-adv-x="944" d="M932 1619V1295H682V0H261V1295H12V1619H932Z"/><glyph unicode="У" horiz-adv-x="918" d="M918 1620L803 547Q776 293 745 191T625 44T332 0H86V209H111Q194 209 213 222T233 264Q233 266 209 401L-12 1620H354L487 612L551 1620H918Z"/><glyph unicode="Ф" horiz-adv-x="1632" d="M1599 793Q1599 634 1584 564Q1563 467 1495 389Q1389 268 1096 268H1022V0H600V268H535Q241 268 135 389Q67 467 46 564Q31 634 31 793V821Q31 980 46 1050Q67 1147 135 1225Q240 1343 535 1343Q557 1343 600 1346V1620H1022V1346Q1073 1343 1096 1343Q1391 1343 1495 1225Q1563 1147 1584 1050Q1599 980 1599 821V793ZM1178 702V911Q1178 994 1146 1044T1065 1094H1022V520H1065Q1113 520 1145 570T1178 702ZM600 520V1094H565Q518 1094 486 1044T453 911V702Q453 620 485 570T565 520H600Z"/><glyph unicode="Х" horiz-adv-x="988" d="M937 1619L790 903L1012 0H622Q552 242 494 589Q478 436 450 264L410 0H0L152 903L0 1619H407Q418 1552 451 1396Q477 1277 494 1178L584 1619H937Z"/><glyph unicode="Ц" horiz-adv-x="1167" d="M1139 -279H848V0H84V1620H506V324H631V1620H1053V324H1139V-279Z"/><glyph unicode="Ч" horiz-adv-x="1165" d="M659 621Q608 567 526 535T360 502Q209 502 141 586T72 846V1620H494V891Q494 796 510 761T565 725Q659 725 659 887V1620H1081V0H659V621Z"/><glyph unicode="Ш" horiz-adv-x="1686" d="M1602 0H84V1620H506V324H631V1620H1053V324H1178V1620H1602V0Z"/><glyph unicode="Щ" horiz-adv-x="1720" d="M1681 -279H1391V0H84V1620H506V324H627V1620H1049V324H1174V1620H1595V324H1681V-279Z"/><glyph unicode="Ъ" horiz-adv-x="1272" d="M1208 379Q1208 198 1161 119T1019 20T715 0H227V1366H25V1620H649V1065H715Q910 1065 1009 1042T1158 941T1208 694V379ZM786 428V662Q786 764 766 786T649 811V279Q729 279 757 299T786 428Z"/><glyph unicode="Ы" horiz-adv-x="1700" d="M1065 379Q1065 198 1018 119T876 20T571 0H84V1620H506V1065H571Q766 1065 866 1042T1015 941T1065 694V379ZM643 428V662Q643 764 623 786T506 811V279Q586 279 614 299T643 428ZM1630 0H1208V1620H1630V0Z"/><glyph unicode="Ь" horiz-adv-x="1130" d="M1065 379Q1065 198 1018 119T876 20T571 0H84V1620H506V1065H571Q766 1065 866 1042T1015 941T1065 694V379ZM643 428V662Q643 764 623 786T506 811V279Q586 279 614 299T643 428Z"/><glyph unicode="Э" horiz-adv-x="1085" d="M1004 440Q1004 206 889 97T535 -12Q281 -12 170 94T59 457V584H463V336Q463 238 532 238Q582 238 591 276T600 461V729H367V965H600V1241Q600 1319 590 1349T537 1380Q463 1380 463 1284V1098H59V1235Q59 1462 163 1546T524 1630Q761 1630 882 1528T1004 1229V440Z"/><glyph unicode="Ю" horiz-adv-x="1667" d="M621 680H506V0H84V1620H506V1040H621Q623 1251 642 1344T726 1500T884 1589T1108 1616Q1243 1616 1339 1588T1499 1491T1578 1315T1595 948V672Q1595 410 1579 304T1500 128T1339 27T1108 -4Q984 -4 891 23T736 109T653 236T627 404T621 672V680ZM1174 399V1202Q1174 1304 1164 1342T1108 1380Q1072 1380 1057 1351T1042 1202V371Q1042 308 1054 274T1106 240Q1141 240 1157 267T1174 399Z"/><glyph unicode="Я" horiz-adv-x="1102" d="M1022 0H600V729Q520 729 497 703T473 586V0H82V483Q82 606 95 670T158 776T313 846Q168 859 125 928T82 1178Q82 1340 122 1431T238 1563T413 1611T723 1620H1022V0ZM600 983V1341H580Q527 1341 500 1318T473 1217V1128Q473 1038 495 1011T600 983Z"/><glyph unicode="а" horiz-adv-x="1032" d="M433 813H54V902Q54 1056 89 1139T232 1287T510 1351Q715 1351 819 1279T944 1101T965 666V0H572V118Q535 47 477 12T337 -24Q231 -24 143 35T54 296V405Q54 554 101 608T334 734Q533 812 547 839T561 949Q561 1053 546 1084T494 1116Q453 1116 443 1090T433 952V813ZM561 631Q464 560 449 512T433 374Q433 271 446 241T500 211Q538 211 549 234T561 358V631Z"/><glyph unicode="б" horiz-adv-x="1069" d="M594 272V950Q594 1039 589 1060Q578 1106 535 1106Q491 1106 480 1059Q475 1037 475 950V315Q475 201 535 201Q594 201 594 272ZM690 1327Q978 1327 991 1094Q997 983 997 850V526Q997 301 967 219Q879 -12 532 -12Q402 -12 362 -8Q278 3 219 43Q125 108 94 220Q72 302 72 481V1260Q72 1425 182 1528T469 1632Q543 1632 681 1622T862 1612Q915 1612 952 1624V1415Q903 1401 874 1401Q820 1401 721 1409T578 1417Q496 1417 477 1339Q471 1316 471 1210Q567 1327 690 1327Z"/><glyph unicode="в" horiz-adv-x="1053" d="M1008 350Q1008 147 920 74T535 0H72V1327H549Q794 1327 886 1246T979 969Q979 744 745 713Q867 693 937 618T1008 428V350ZM473 834Q565 834 585 857T606 948Q606 1005 583 1027T473 1049V834ZM606 412V457Q606 543 583 564T473 586V279Q554 279 580 302T606 412Z"/><glyph unicode="г" horiz-adv-x="707" d="M72 0V1327H707V1098H475V0H72Z"/><glyph unicode="д" horiz-adv-x="1276" d="M1247 -256H977V0H297V-256H27V317H113Q190 436 239 686T289 1278V1327H1161V319H1247V-256ZM760 319V1028H655V1014Q655 644 535 319H760Z"/><glyph unicode="е" horiz-adv-x="1047" d="M987 640H464V353Q464 263 477 237T527 211Q573 211 588 245T604 379V554H987V456Q987 333 972 267T899 126T755 14T535 -24Q407 -24 309 13T157 114T81 256T60 482V869Q60 1043 107 1143T261 1297T507 1351Q677 1351 787 1287T942 1116T987 816V640ZM582 856V953Q582 1056 571 1086T526 1116Q484 1116 474 1091T464 953V856H582Z"/><glyph unicode="ж" horiz-adv-x="1530" d="M1518 0H1128Q1083 61 1083 156V436Q1083 571 954 571V0H555V571Q446 571 446 436V156Q446 20 401 0H12Q57 65 57 193V426Q57 591 264 657Q322 676 395 690Q360 692 260 725Q159 772 128 799Q59 858 59 956V1135Q59 1262 14 1327H403Q449 1266 449 1171V946Q449 811 555 811V1327H954V811Q1081 811 1081 946V1171Q1081 1307 1126 1327H1516Q1470 1262 1470 1135V956Q1470 858 1402 799Q1371 772 1270 725Q1209 697 1135 690Q1169 684 1266 657Q1473 591 1473 426V193Q1473 65 1518 0Z"/><glyph unicode="з" horiz-adv-x="1034" d="M788 711Q883 681 928 623T973 442Q973 306 953 245T876 120T718 28T496 0Q253 0 156 95T59 440V537H442V350Q442 250 512 250Q549 250 568 278T588 428V512Q588 570 549 592T387 614V803H418Q503 803 529 807T571 835T588 918V946Q588 1031 570 1054T516 1077Q442 1077 442 989V881H59V940Q59 1150 161 1238T504 1327Q734 1327 845 1242T956 979Q956 859 920 801T788 711Z"/><glyph unicode="и" horiz-adv-x="1145" d="M1073 0H721V717L440 0H72V1327H424V616L700 1327H1073V0Z"/><glyph unicode="й" horiz-adv-x="1145" d="M1073 0H721V717L440 0H72V1327H424V616L700 1327H1073V0ZM684 1718H854Q848 1582 775 1499T570 1416Q438 1416 366 1499T287 1718H457Q469 1581 570 1581Q672 1581 684 1718Z"/><glyph unicode="к" horiz-adv-x="1047" d="M471 1327V811Q598 811 598 946V1171Q598 1307 643 1327H1032Q987 1262 987 1135V950Q987 853 908 789Q879 765 786 721Q726 692 651 690Q686 684 782 657Q989 591 989 426V193Q989 65 1034 0H645Q600 61 600 156V436Q600 571 471 571V0H72V1327H471Z"/><glyph unicode="л" horiz-adv-x="1149" d="M686 0V1049H543V379Q543 196 501 118T369 20T72 0H6V217Q83 218 112 236T141 367V1327H1087V0H686Z"/><glyph unicode="м" horiz-adv-x="1399" d="M1327 0H981V915L813 0H592L418 915V0H72V1327H573L702 594L819 1327H1327V0Z"/><glyph unicode="н" horiz-adv-x="1092" d="M1020 0H618V489H473V0H72V1327H473V850H618V1327H1020V0Z"/><glyph unicode="о" horiz-adv-x="1047" d="M986 861V536Q986 357 968 274T891 118T740 11T527 -24Q393 -24 300 5T156 94T82 238T60 492V832Q60 1017 100 1121T244 1288T510 1351Q646 1351 743 1311T894 1205T966 1071T986 861ZM582 961Q582 1063 571 1089T524 1116Q488 1116 476 1090T464 961V362Q464 268 476 240T523 211Q559 211 570 237T582 349V961Z"/><glyph unicode="п" horiz-adv-x="1090" d="M72 0V1327H1018V0H616V1049H473V0H72Z"/><glyph unicode="р" horiz-adv-x="1063" d="M483 1327L476 1210Q530 1281 595 1316T737 1351Q831 1351 899 1301T985 1184T1002 960V401Q1002 220 981 144T893 22T732 -24Q657 -24 593 11T476 115V-189H72V1327H483ZM598 941Q598 1064 589 1090T539 1116Q499 1116 488 1086T476 941V391Q476 271 488 241T540 211Q579 211 588 238T598 372V941Z"/><glyph unicode="с" horiz-adv-x="1013" d="M965 826H584V979Q584 1059 571 1087T523 1116Q488 1116 476 1091T464 979V353Q464 282 482 247T535 211Q576 211 590 248T605 388V546H965Q964 387 954 308T887 145T739 19T514 -24Q343 -24 243 34T102 198T60 498V875Q60 1044 94 1130T239 1283T509 1351Q667 1351 779 1284T928 1115T965 826Z"/><glyph unicode="т" horiz-adv-x="881" d="M872 1327V1049H641V0H238V1049H6V1327H872Z"/><glyph unicode="у" horiz-adv-x="918" d="M918 1327L802 367Q775 139 757 56T695 -81T576 -160T331 -186H86V26Q180 26 207 35T234 78Q234 94 209 217L-12 1327H355L487 432L551 1327H918Z"/><glyph unicode="ф" horiz-adv-x="1575" d="M1513 401Q1513 262 1497 179T1420 45T1237 -6Q1077 -6 987 115V-190H586V113Q489 -8 324 -8Q216 -8 153 34T75 149T59 362V922Q59 1061 76 1144T153 1278T336 1329Q496 1329 586 1208V1534H987V1210Q1084 1331 1249 1331Q1357 1331 1420 1289T1498 1174T1513 961V401ZM1110 311V942Q1110 1039 1109 1060T1095 1098T1051 1116Q1017 1116 1002 1092T987 1004V313Q987 211 1053 211Q1081 211 1095 231T1110 311ZM586 319V1010Q586 1112 520 1112Q492 1112 478 1092T463 1012V381Q463 284 464 263T478 225T522 207Q556 207 571 231T586 319Z"/><glyph unicode="х" horiz-adv-x="888" d="M872 1327L711 693L906 0H513Q455 262 425 451Q385 215 338 0H0L174 693L0 1327H338Q419 921 425 866Q483 1205 513 1327H872Z"/><glyph unicode="ц" horiz-adv-x="1133" d="M72 0V1327H473V279H616V1327H1018V279H1104V-256H834V0H72Z"/><glyph unicode="ч" horiz-adv-x="1055" d="M993 0H590V365Q514 293 348 293Q233 293 162 334T75 453T59 705V1327H463V686Q463 580 473 543T526 506Q562 506 576 539T590 672V1327H993V0Z"/><glyph unicode="ш" horiz-adv-x="1640" d="M1022 279H1165V1327H1569V0H72V1327H475V279H618V1327H1022V279Z"/><glyph unicode="щ" horiz-adv-x="1683" d="M72 0V1327H475V279H618V1327H1022V279H1165V1327H1569V279H1655V-256H1384V0H72Z"/><glyph unicode="ъ" horiz-adv-x="1214" d="M1153 379Q1153 197 1111 118T978 20T680 0H213V1049H10V1327H614V885H680Q873 885 968 862T1108 761T1153 514V379ZM752 428V481Q752 584 731 606T614 631V279Q694 279 723 299T752 428Z"/><glyph unicode="ы" horiz-adv-x="1606" d="M1012 379Q1012 197 970 118T836 20T539 0H72V1327H473V885H539Q732 885 827 862T967 761T1012 514V379ZM610 428V481Q610 584 590 606T473 631V279Q553 279 581 299T610 428ZM1536 0H1135V1327H1536V0Z"/><glyph unicode="ь" horiz-adv-x="1069" d="M1012 379Q1012 197 970 118T836 20T539 0H72V1327H473V885H539Q732 885 827 862T967 761T1012 514V379ZM610 428V481Q610 584 590 606T473 631V279Q553 279 581 299T610 428Z"/><glyph unicode="э" horiz-adv-x="1024" d="M397 786H580V1016Q580 1074 565 1093T518 1112Q480 1112 471 1078T461 950V866H59V926Q59 1056 115 1150T271 1284T537 1325Q750 1325 856 1226T963 866V479Q963 352 948 275T878 129T732 28T508 -4Q376 -4 291 23T146 120T72 264T57 455V512H438V348Q438 270 456 240T516 209Q547 209 563 232T580 350V606H397V786Z"/><glyph unicode="ю" horiz-adv-x="1585" d="M598 535H475V0H72V1327H477V813H598V831Q598 949 612 1034T682 1192T831 1299T1049 1335Q1181 1335 1280 1300T1439 1195T1511 1055T1524 860V537Q1524 355 1506 268T1423 114T1266 23T998 -2Q911 -2 854 8T738 58T648 159T607 295T598 492V535ZM1120 283V961Q1120 1053 1111 1084T1061 1116Q1020 1116 1011 1084T1001 961V326Q1001 211 1061 211Q1087 211 1103 231T1120 283Z"/><glyph unicode="я" horiz-adv-x="1047" d="M975 0H573V522Q495 522 466 489T436 365V0H66V311Q66 430 79 482T138 565T297 625Q152 638 109 707T66 956Q66 1154 180 1240T676 1327H975V0ZM573 752V1069H532Q488 1069 462 1044T436 924V907Q436 811 465 782T573 752Z"/><glyph unicode="ё" horiz-adv-x="1047" d="M987 640H464V353Q464 263 477 237T527 211Q573 211 588 245T604 379V554H987V456Q987 333 972 267T899 126T755 14T535 -24Q407 -24 309 13T157 114T81 256T60 482V869Q60 1043 107 1143T261 1297T507 1351Q677 1351 787 1287T942 1116T987 816V640ZM582 856V953Q582 1056 571 1086T526 1116Q484 1116 474 1091T464 953V856H582ZM433 1676V1416H172V1676H433ZM870 1676V1416H609V1676H870Z"/><glyph unicode="ђ" horiz-adv-x="1096" d="M100 1290H8V1499H100V1622H504V1499H721V1290H504V1098Q584 1169 745 1169Q861 1169 932 1129T1018 1010T1034 758V76Q1034 -120 938 -211T575 -303H551V-25Q600 -25 615 16T631 125V776Q631 883 621 919T567 956Q531 956 518 923T504 791V0H100V1290Z"/><glyph unicode="ѓ" horiz-adv-x="707" d="M72 12V1339H707V1110H475V12H72ZM696 1946L367 1675H164L340 1946H696Z"/><glyph unicode="є" horiz-adv-x="1024" d="M967 446Q967 329 952 254T876 110T731 15T516 -12Q382 -12 291 20T145 122T76 269T61 471V881Q61 988 77 1068T145 1214T280 1309T487 1339Q750 1339 857 1230T965 940V881H563V965Q563 1059 554 1092T506 1126Q474 1126 459 1107T444 1030V786H627V598H444V342Q444 246 460 224T508 201Q549 201 567 231T586 340V504H967V446Z"/><glyph unicode="ѕ" horiz-adv-x="964" d="M897 903H539V975Q539 1067 529 1091T476 1116Q442 1116 425 1094T408 1026Q408 965 416 937T467 874T642 775Q818 689 873 613Q928 537 928 392Q928 230 886 148T746 21T508 -24Q354 -24 245 24T94 154T53 402V466H411V382Q411 275 424 243T478 211Q521 211 538 232T555 323Q555 418 533 442Q510 466 298 584Q120 684 81 765T42 959Q42 1118 84 1193T226 1310T460 1351Q592 1351 684 1318T826 1229T886 1127T897 980V903Z"/><glyph unicode="і" horiz-adv-x="561" d="M488 1619V1408H72V1619H488ZM488 1327V0H72V1327H488Z"/><glyph unicode="ї" horiz-adv-x="561" d="M488 1327V0H72V1327H488ZM451 1933V1673H190V1933H451ZM888 1933V1673H627V1933H888Z"/><glyph unicode="ј" horiz-adv-x="573" d="M500 1619V1408H84V1619H500ZM500 1327V277Q500 92 493 27T447 -88T344 -162T150 -186H-6V26Q66 26 75 42T84 242V1327H500Z"/><glyph unicode="љ" horiz-adv-x="1688" d="M543 1049V379Q543 196 501 118T369 20T72 0H6V279Q83 279 112 298T141 428V1327H1087V885H1153Q1346 885 1441 862T1581 761T1626 514V379Q1626 197 1584 118T1451 20T1153 0H686V1049H543ZM1225 428V481Q1225 584 1204 606T1087 631V279Q1167 279 1196 299T1225 428Z"/><glyph unicode="њ" horiz-adv-x="1606" d="M1006 1327V885H1071Q1264 885 1359 862T1499 761T1544 514V379Q1544 197 1502 118T1369 20T1071 0H604V496H461V0H59V1327H461V850H604V1327H1006ZM1143 428V481Q1143 584 1122 606T1006 631V279Q1086 279 1114 299T1143 428Z"/><glyph unicode="ћ" horiz-adv-x="1096" d="M631 0V776Q631 883 621 919T567 956Q531 956 518 923T504 791V0H100V1290H8V1499H100V1622H504V1499H721V1290H504V1098Q580 1169 745 1169Q861 1169 932 1129T1018 1010T1034 758V0H631Z"/><glyph unicode="ќ" horiz-adv-x="1047" d="M471 1327V811Q598 811 598 946V1171Q598 1307 643 1327H1032Q987 1262 987 1135V950Q987 853 908 789Q879 765 786 721Q726 692 651 690Q686 684 782 657Q989 591 989 426V193Q989 65 1034 0H645Q600 61 600 156V436Q600 571 471 571V0H72V1327H471ZM872 1687L543 1416H340L516 1687H872Z"/><glyph unicode="ў" horiz-adv-x="918" d="M918 1327L802 367Q775 139 757 56T695 -81T576 -160T331 -186H86V26Q180 26 207 35T234 78Q234 94 209 217L-12 1327H355L487 432L551 1327H918ZM581 1974H751Q745 1838 672 1755T467 1672Q335 1672 263 1755T184 1974H354Q366 1837 467 1837Q569 1837 581 1974Z"/><glyph unicode="џ" horiz-adv-x="1067" d="M397 0H59V1327H461V279H604V1327H1006V0H668V-256H397V0Z"/><glyph unicode="Ґ" horiz-adv-x="881" d="M563 1743H854V1296H506V0H84V1620H563V1743Z"/><glyph unicode="ґ" horiz-adv-x="827" d="M553 1327V1518H823V1049H475V0H72V1327H553Z"/><glyph unicode="Ẁ" horiz-adv-x="1668" d="M1668 1619L1481 0H955Q883 373 828 848Q803 645 711 0H188L0 1619H409L452 1054L496 509Q519 932 612 1619H1050Q1059 1548 1096 1085L1142 470Q1177 1057 1259 1619H1668ZM487 1941H843L1019 1670H816L487 1941Z"/><glyph unicode="ẁ" horiz-adv-x="1371" d="M1377 1327L1216 0H777Q741 243 694 640Q678 466 649 288L604 0H165L-6 1327H342Q346 1275 430 568Q436 640 520 1327H855L937 568Q956 900 1029 1327H1377ZM373 1687H729L905 1416H702L373 1687Z"/><glyph unicode="Ẃ" horiz-adv-x="1668" d="M1668 1619L1481 0H955Q883 373 828 848Q803 645 711 0H188L0 1619H409L452 1054L496 509Q519 932 612 1619H1050Q1059 1548 1096 1085L1142 470Q1177 1057 1259 1619H1668ZM1126 1941L797 1670H594L770 1941H1126Z"/><glyph unicode="ẃ" horiz-adv-x="1371" d="M1377 1327L1216 0H777Q741 243 694 640Q678 466 649 288L604 0H165L-6 1327H342Q346 1275 430 568Q436 640 520 1327H855L937 568Q956 900 1029 1327H1377ZM978 1687L649 1416H446L622 1687H978Z"/><glyph unicode="Ẅ" horiz-adv-x="1667" d="M1668 1619L1481 0H955Q883 373 828 848Q803 645 711 0H188L0 1619H409L452 1054L496 509Q519 932 612 1619H1050Q1059 1548 1096 1085L1142 470Q1177 1057 1259 1619H1668ZM746 1930V1670H485V1930H746ZM1183 1930V1670H922V1930H1183Z"/><glyph unicode="ẅ" horiz-adv-x="1371" d="M1377 1327L1216 0H777Q741 243 694 640Q678 466 649 288L604 0H165L-6 1327H342Q346 1275 430 568Q436 640 520 1327H855L937 568Q956 900 1029 1327H1377ZM595 1676V1416H334V1676H595ZM1032 1676V1416H771V1676H1032Z"/><glyph unicode="Ỳ" horiz-adv-x="969" d="M981 1619L674 586V0H284V586L-12 1619H375Q466 1146 477 982Q512 1241 594 1619H981ZM168 1941H524L700 1670H497L168 1941Z"/><glyph unicode="ỳ" horiz-adv-x="918" d="M918 1327L802 367Q775 139 757 56T695 -81T576 -160T331 -186H86V26Q180 26 207 35T234 78Q234 94 209 217L-12 1327H355L487 432L551 1327H918ZM143 1687H499L675 1416H472L143 1687Z"/><glyph unicode="–" horiz-adv-x="1024" d="M-12 788H1036V539H-12V788Z"/><glyph unicode="—" horiz-adv-x="2048" d="M-12 788H2060V539H-12V788Z"/><glyph unicode="―" horiz-adv-x="2048" d="M-12 788H2060V539H-12V788Z"/><glyph unicode="‗" horiz-adv-x="1130" d="M-12 -256V-154H1143V-256H-12ZM-12 -461V-358H1143V-461H-12Z"/><glyph unicode="‘" horiz-adv-x="344" d="M36 1095V1240Q36 1354 63 1427T157 1551T307 1619V1503Q248 1469 240 1412H307V1095H36Z"/><glyph unicode="’" horiz-adv-x="344" d="M307 1619V1474Q307 1361 280 1288T187 1164T36 1095V1212Q96 1245 104 1302H36V1619H307Z"/><glyph unicode="‚" horiz-adv-x="344" d="M307 317V172Q307 58 280 -15T187 -139T36 -207V-91Q96 -57 104 0H36V317H307Z"/><glyph unicode="‛" horiz-adv-x="344" d="M37 1619H308V1302H240Q248 1245 308 1212V1095Q119 1135 64 1288Q37 1361 37 1474V1619Z"/><glyph unicode="“" horiz-adv-x="706" d="M398 1095V1240Q398 1354 425 1427T519 1551T669 1619V1503Q610 1469 602 1412H669V1095H398ZM36 1095V1240Q36 1354 63 1427T157 1551T307 1619V1503Q248 1469 240 1412H307V1095H36Z"/><glyph unicode="”" horiz-adv-x="706" d="M669 1619V1474Q669 1361 642 1288T549 1164T398 1095V1212Q457 1245 465 1302H398V1619H669ZM307 1619V1474Q307 1361 280 1288T187 1164T36 1095V1212Q96 1245 104 1302H36V1619H307Z"/><glyph unicode="„" horiz-adv-x="706" d="M669 317V172Q669 58 642 -15T549 -139T398 -207V-91Q457 -57 465 0H398V317H669ZM307 317V172Q307 58 280 -15T187 -139T36 -207V-91Q96 -57 104 0H36V317H307Z"/><glyph unicode="†" horiz-adv-x="1112" d="M334 1619H778V1151H1076V770H778V-189H334V770H36V1150H334V1619Z"/><glyph unicode="‡" horiz-adv-x="1113" d="M334 1619H778V1244H1076V864H778V566H1076V185H778V-189H334V185H36V566H334V864H36V1244H334V1619Z"/><glyph unicode="•" horiz-adv-x="712" d="M651 817Q651 685 563 600T356 514Q233 514 147 600T60 810Q60 931 147 1018T355 1105Q485 1105 568 1015T651 817Z"/><glyph unicode="…" horiz-adv-x="1133" d="M341 330V0H36V330H341ZM1097 330V0H792V330H1097ZM719 330V0H414V330H719Z"/><glyph unicode="‰" horiz-adv-x="2099" d="M1103 1650L470 -31H316L951 1650H1103ZM632 1343V1065Q632 956 612 902T524 807T345 766Q217 766 150 804T60 897T36 1052V1343Q36 1463 60 1520T155 1614T328 1650Q442 1650 513 1611T608 1515T632 1343ZM376 1414Q376 1478 370 1493T334 1508Q307 1508 299 1492T291 1414V1006Q291 936 298 922T335 908Q361 908 368 924T376 999V1414ZM1383 561V282Q1383 174 1363 119T1275 24T1096 -17Q969 -17 902 22T811 115T787 269V561Q787 680 811 737T906 831T1079 868Q1194 868 1265 828T1359 732T1383 561ZM1127 631Q1127 695 1121 710T1085 726Q1058 726 1051 710T1043 631V223Q1043 154 1050 140T1086 126Q1113 126 1120 141T1127 217V631ZM2063 561V282Q2063 174 2043 119T1955 24T1776 -17Q1649 -17 1582 22T1491 115T1467 269V561Q1467 680 1491 737T1586 831T1759 868Q1874 868 1944 828T2039 732T2063 561ZM1807 631Q1807 695 1801 710T1765 726Q1738 726 1731 710T1723 631V223Q1723 154 1730 140T1766 126Q1792 126 1799 141T1807 217V631Z"/><glyph unicode="′" horiz-adv-x="379" d="M297 1098H90L80 1620H385L297 1098Z"/><glyph unicode="″" horiz-adv-x="795" d="M297 1098H90L80 1620H385L297 1098ZM707 1098H500L489 1620H795L707 1098Z"/><glyph unicode="‹" horiz-adv-x="405" d="M123 1257H368L281 696L368 104H123L36 696L123 1257Z"/><glyph unicode="›" horiz-adv-x="405" d="M281 1257L368 696L281 104H36L123 696L36 1257H281Z"/><glyph unicode="‼" horiz-adv-x="1114" d="M72 1620H516L451 399H137L72 1620ZM590 1620H1034L969 399H655L590 1620ZM104 324H483V0H104V324ZM623 324H1001V0H623V324Z"/><glyph unicode="‾" horiz-adv-x="1201" d="M-42 1869H1244V1795H-42V1869Z"/><glyph unicode="⁄" horiz-adv-x="256" d="M521 1650L-111 -31H-265L370 1650H521Z"/><glyph unicode="⁴" horiz-adv-x="660" d="M565 1636V1086H636V931H565V783H310V931H12V1082L230 1636H565ZM310 1086V1422L183 1086H310Z"/><glyph unicode="ⁿ" horiz-adv-x="682" d="M305 1620L299 1546Q355 1630 477 1630Q538 1630 577 1604T626 1532T637 1386V840H375V1378Q375 1459 368 1477T342 1495Q318 1495 309 1466T299 1366V840H37V1620H305Z"/><glyph unicode="₣" horiz-adv-x="815" d="M506 289V0H84V289H2V461H84V1620H797V1296H506V987H766V680H506V461H645V289H506Z"/><glyph unicode="₤" horiz-adv-x="1096" d="M389 236Q469 248 487 248Q515 248 567 240Q605 233 621 233Q666 233 687 263T709 389V455H1047V326Q1047 187 1029 123T938 14T748 -31Q682 -31 553 1Q404 37 317 37Q167 37 72 -31V205Q182 272 219 535H72V707H238Q238 737 225 797H68V967H172Q156 998 135 1036T101 1119T88 1227Q88 1423 209 1537T541 1651Q760 1651 885 1537T1010 1231Q1010 1188 999 1098H637V1333Q637 1438 557 1438Q519 1438 492 1405T465 1325Q465 1262 519 1106Q557 995 557 967H731V797H580Q584 737 584 702H735V535H575Q551 340 389 236Z"/><glyph unicode="₧" horiz-adv-x="2630" d="M506 0H84V1620H508Q665 1620 754 1600T904 1519T977 1386T991 1165V1026Q991 783 894 717T618 651H506V0ZM639 1077V1208Q639 1290 614 1315T506 1341V930H537Q594 930 616 957T639 1077ZM1122 1294V1505H1526V1294H1634V1085H1526V375Q1526 282 1531 254T1556 220T1653 213V0H1489Q1362 0 1299 10T1188 63T1131 173T1122 412V1085H1034V1294H1122ZM2066 467V326Q2066 211 2138 211Q2175 211 2192 231T2210 326Q2210 404 2192 432T2093 506Q1874 629 1810 681T1722 797T1698 1008Q1698 1176 1797 1253T2120 1331Q2252 1331 2344 1305T2485 1225T2543 1123T2554 979V903H2195V1026Q2195 1077 2181 1097T2132 1118Q2094 1118 2078 1094T2062 999Q2062 946 2087 909T2183 836Q2350 750 2434 697T2550 573T2583 393Q2583 172 2484 82T2165 -8Q2040 -8 1950 14T1803 87T1727 212T1708 401V467H2066Z"/><glyph unicode="€" horiz-adv-x="1087" d="M457 1036H571V864H457V784H571V612H457V430Q457 345 463 314T493 262T553 240Q583 240 608 257T640 308T647 444V598H1020V535Q1020 310 978 203T823 30T549 -35Q420 -35 317 10T159 132T88 298T72 569V612H-25V784H72V864H-25V1036H72V1065Q72 1221 85 1313T160 1484T325 1608T561 1653Q691 1653 796 1606T961 1455T1020 1116V1063H647V1194Q644 1297 640 1323T619 1364T563 1378Q519 1378 493 1358T462 1304T457 1182V1036Z"/><glyph unicode="℅" horiz-adv-x="1419" d="M952 1651H1104L471 -31H317L952 1651ZM633 1065Q633 967 610 902T516 802T346 766Q257 766 196 784T95 847T46 934T37 1051V1343Q37 1473 68 1534T164 1623T328 1651Q435 1651 510 1614T609 1515T633 1352V1313H387V1356Q387 1509 336 1509Q293 1509 293 1448V967Q293 928 305 918T336 907Q364 907 370 926T377 999V1087H633V1065ZM788 268V561Q788 676 812 737T912 833T1079 868Q1190 868 1268 826T1365 726T1384 561V283Q1384 104 1308 44T1098 -16Q1008 -16 945 4T844 68T797 154T788 268ZM1128 217V631Q1128 689 1122 708T1085 727Q1044 727 1044 666V184Q1044 145 1056 135T1087 125Q1116 125 1122 143T1128 217Z"/><glyph unicode="ℓ" horiz-adv-x="1201" d="M623 542Q567 250 567 170Q567 115 596 115Q634 115 679 211Q699 253 726 253Q764 253 764 208Q764 127 696 48T534 -32Q458 -32 413 32T368 268Q368 302 371 359Q319 304 303 304Q290 304 277 319T263 361Q263 387 290 418Q358 494 387 530Q448 883 553 1133T818 1383Q898 1383 941 1328T984 1190Q984 902 623 542ZM653 729Q743 829 800 953T858 1172Q858 1246 823 1246Q783 1246 741 1115T653 729Z"/><glyph unicode="№" horiz-adv-x="1780" d="M672 889V1620H1024V0H655L436 737V0H84V1620H436L672 889ZM1133 547V840Q1133 955 1157 1016T1256 1112T1423 1147Q1534 1147 1612 1105T1709 1004T1729 840V561Q1729 382 1653 322T1442 262Q1352 262 1290 282T1188 346T1141 432T1133 547ZM1473 496V909Q1473 968 1467 987T1430 1006Q1389 1006 1389 944V463Q1389 434 1396 419T1432 403Q1460 403 1466 422T1473 496ZM1110 209H1753V37H1110V209Z"/><glyph unicode="™" horiz-adv-x="1603" d="M265 800V1477H12V1619H677V1477H431V800H265ZM738 800V1619H997L1146 1055L1295 1619H1555V800H1397V1453L1220 800H1070L894 1453V800H738Z"/><glyph unicode="Ω" horiz-adv-x="1573" d="M617 359L651 0H32V377H68Q72 308 101 276T227 244H555L548 313Q297 366 190 510T82 825Q82 1056 267 1221T786 1387Q1120 1387 1305 1222T1490 825Q1490 654 1383 510T1024 313L1017 244H1345Q1410 244 1436 254T1482 292T1504 377H1540V0H921L955 359Q1138 422 1138 800Q1138 1087 1031 1198T786 1309Q677 1309 595 1246T473 1084T434 813Q434 421 617 359Z"/><glyph unicode="℮" horiz-adv-x="1229" d="M321 531V160Q441 39 619 39Q873 39 1014 285L1086 242Q968 72 855 19T619 -34Q387 -34 239 124T90 531Q90 783 239 939T619 1096Q833 1096 985 954T1148 531H321ZM917 605V902Q793 1023 617 1023Q443 1023 321 902V605H917Z"/><glyph unicode="⅛" horiz-adv-x="1365" d="M291 1636H440V782H184V1315Q184 1362 156 1378Q135 1391 80 1391H12V1501Q194 1533 291 1636ZM850 1651H1001L369 -31H215L850 1651ZM738 650Q738 761 827 819Q904 870 1027 870Q1321 870 1321 644Q1321 583 1291 547Q1268 517 1205 484Q1328 429 1328 247Q1328 -16 1030 -16Q731 -16 731 258Q731 418 842 484Q738 539 738 650ZM1072 582V687Q1072 738 1028 738Q987 738 987 683V576Q987 534 1031 534Q1072 534 1072 582ZM1077 321Q1077 394 1028 394Q982 394 982 312V193Q982 115 1032 115Q1077 115 1077 193V321Z"/><glyph unicode="⅜" horiz-adv-x="1508" d="M37 1378V1440Q37 1558 99 1605T315 1653Q471 1653 543 1602Q623 1547 623 1421Q623 1307 532 1264Q601 1240 622 1174Q633 1137 633 1042Q633 902 574 839Q505 766 338 766Q144 766 79 855Q37 913 37 1057V1114H293V952Q293 907 332 907Q363 907 371 933Q377 951 377 1018V1073Q377 1142 344 1160Q320 1174 227 1176V1309H246Q328 1309 345 1316Q377 1330 377 1395V1442Q377 1509 336 1509Q293 1509 293 1464V1378H37ZM989 1651H1141L508 -31H354L989 1651ZM882 650Q882 761 970 819Q1047 870 1171 870Q1464 870 1464 644Q1464 583 1435 547Q1411 517 1349 484Q1472 429 1472 247Q1472 -16 1173 -16Q874 -16 874 258Q874 418 985 484Q882 539 882 650ZM1216 582V687Q1216 738 1172 738Q1130 738 1130 683V576Q1130 534 1174 534Q1216 534 1216 582ZM1220 321Q1220 394 1172 394Q1126 394 1126 312V193Q1126 115 1175 115Q1220 115 1220 193V321Z"/><glyph unicode="⅝" horiz-adv-x="1513" d="M994 1651H1145L512 -31H359L994 1651ZM886 650Q886 761 974 819Q1051 870 1175 870Q1468 870 1468 644Q1468 583 1439 547Q1415 517 1353 484Q1476 429 1476 247Q1476 -16 1177 -16Q879 -16 879 258Q879 418 990 484Q886 539 886 650ZM1220 582V687Q1220 738 1176 738Q1134 738 1134 683V576Q1134 534 1178 534Q1220 534 1220 582ZM1224 321Q1224 394 1176 394Q1130 394 1130 312V193Q1130 115 1179 115Q1224 115 1224 193V321ZM48 1638H594V1489H286V1356Q338 1415 410 1415Q523 1415 584 1346Q640 1282 640 1176V1041Q640 768 342 768Q171 768 99 861Q37 940 37 1105H295Q297 995 297 991Q307 900 347 900Q374 900 390 990Q402 1053 402 1102Q402 1190 399 1210Q387 1283 340 1283Q303 1283 295 1207H39L48 1638Z"/><glyph unicode="⅞" horiz-adv-x="1293" d="M774 1651H926L293 -31H139L774 1651ZM667 650Q667 761 755 819Q832 870 956 870Q1249 870 1249 644Q1249 583 1220 547Q1196 517 1134 484Q1256 429 1256 247Q1256 -16 958 -16Q659 -16 659 258Q659 418 770 484Q667 539 667 650ZM1001 582V687Q1001 738 957 738Q915 738 915 683V576Q915 534 959 534Q1001 534 1001 582ZM1005 321Q1005 394 957 394Q911 394 911 312V193Q911 115 960 115Q1005 115 1005 193V321ZM12 1634H464V1447L328 780H72L219 1463L12 1465V1634Z"/><glyph unicode="←" horiz-adv-x="2048" d="M492 157Q371 292 283 362T79 494V540Q195 601 282 670T492 876H568Q522 780 491 729T402 604H1968V429H402Q457 360 490 307T568 157H492Z"/><glyph unicode="↑" horiz-adv-x="1024" d="M153 926Q288 1048 358 1135T490 1339H535Q596 1223 665 1137T872 926V850Q775 896 724 928T600 1016V-429H425V1016Q356 962 303 929T153 850V926Z"/><glyph unicode="→" horiz-adv-x="2048" d="M1555 876Q1677 741 1764 671T1968 539V494Q1852 433 1766 364T1555 157H1479Q1525 254 1557 305T1645 429H79V604H1645Q1591 673 1558 726T1479 876H1555Z"/><glyph unicode="↓" horiz-adv-x="1024" d="M871 -16Q736 -138 666 -225T534 -429H489Q428 -313 358 -227T152 -16V60Q249 14 300 -18T424 -106V1339H599V-106Q668 -52 721 -19T871 60V-16Z"/><glyph unicode="↔" horiz-adv-x="2048" d="M402 604H1645Q1591 672 1558 726T1479 876H1555Q1677 741 1764 671T1968 539V494Q1852 433 1766 364T1555 157H1479Q1525 254 1556 305T1645 429H402Q457 360 490 307T568 157H492Q371 292 283 362T79 494V540Q195 601 282 670T492 876H568Q522 780 491 729T402 604Z"/><glyph unicode="↕" horiz-adv-x="1024" d="M600 1139V-104Q668 -50 722 -17T872 63V-14Q737 -135 667 -222T535 -427H490Q429 -311 359 -224T153 -14V63Q249 16 300 -15T425 -104V1139Q356 1085 303 1052T153 973V1049Q288 1171 358 1258T490 1463H535Q596 1346 665 1260T872 1049V973Q775 1019 724 1051T600 1139Z"/><glyph unicode="↨" horiz-adv-x="1024" d="M599 1139V-104Q667 -50 721 -17T871 63V-14Q736 -135 666 -222T534 -427H489Q428 -311 358 -224T152 -14V63Q248 16 299 -15T424 -104V1139Q355 1085 302 1052T152 973V1049Q287 1171 357 1258T489 1463H534Q595 1346 664 1260T871 1049V973Q774 1019 723 1051T599 1139ZM152 -502H871V-677H152V-502Z"/><glyph unicode="∂" horiz-adv-x="1003" d="M354 1150H312Q364 1292 451 1363T660 1434Q760 1434 825 1388T922 1265T954 1034Q954 690 859 448T650 92T378 -23Q223 -23 143 69T62 293Q62 524 250 729T649 934Q817 934 885 784Q893 861 893 911Q893 1021 851 1089T750 1195T580 1234Q507 1234 451 1213T354 1150ZM869 691Q806 883 655 883Q569 883 492 793T366 529T318 212Q318 118 347 81T438 44Q572 44 697 243T869 691Z"/><glyph unicode="∆" horiz-adv-x="1259" d="M1229 0H29L657 1387L1229 0ZM993 82L594 1049L154 82H993Z"/><glyph unicode="∏" horiz-adv-x="1685" d="M1239 1558H444V110Q444 24 483 -10T606 -45H642V-83H45V-45H80Q173 -45 208 -8T243 110V1444Q243 1529 205 1564T80 1599H45V1636H1639V1599H1604Q1518 1599 1480 1563T1442 1444V110Q1442 24 1481 -10T1604 -45H1639V-83H1042V-45H1077Q1170 -45 1204 -8T1239 110V1558Z"/><glyph unicode="∑" horiz-adv-x="1451" d="M1351 -83H38V-47L707 784L38 1600V1638H1316L1343 1301H1303Q1276 1557 1054 1557H314L876 870L247 93H1065Q1154 93 1245 132T1375 339L1415 331L1351 -83Z"/><glyph unicode="−" horiz-adv-x="1092" d="M64 931H1028V687H64V931Z"/><glyph unicode="∕" horiz-adv-x="256" d="M521 1650L-111 -31H-265L370 1650H521Z"/><glyph unicode="∙" horiz-adv-x="450" d="M377 972V642H72V972H377Z"/><glyph unicode="√" horiz-adv-x="1124" d="M1050 1869H1124L812 -78L316 943L118 852L84 916L385 1067L790 244L1050 1869Z"/><glyph unicode="∞" horiz-adv-x="1460" d="M653 809Q723 978 811 1032T1023 1086Q1120 1086 1203 1043T1346 903T1406 669Q1406 546 1357 453T1225 305T1057 249Q978 249 902 298T720 535Q664 419 583 361T396 302Q254 302 154 404T53 671Q53 828 141 933T360 1038Q437 1038 507 996T653 809ZM749 606Q818 459 891 401T1061 343Q1190 343 1269 436T1349 669Q1349 814 1263 911T1067 1008Q982 1008 917 950T749 606ZM624 732Q579 839 513 892T357 946Q256 946 182 874T108 672Q108 535 180 458T338 380Q401 380 471 431T613 698L624 732Z"/><glyph unicode="∟" horiz-adv-x="2048" d="M123 0V1782H258V135H1925V0H123Z"/><glyph unicode="∩" horiz-adv-x="1473" d="M350 0H144V636Q144 907 158 1022T242 1248T447 1433T737 1508Q891 1508 1026 1433T1229 1252T1313 1030T1329 636V0H1123V642Q1123 916 1102 1028T977 1223T737 1306Q634 1306 543 1253T411 1129T360 962T350 642V0Z"/><glyph unicode="∫" horiz-adv-x="561" d="M200 895L212 1340Q221 1684 287 1773T435 1863Q488 1863 524 1829T560 1756Q560 1712 535 1682T468 1652Q433 1652 392 1688Q369 1708 352 1708Q312 1708 312 1645Q312 1603 321 1499Q358 1088 358 834Q358 766 346 364T269 -129T118 -220Q69 -220 35 -188T0 -99Q0 -54 26 -27T90 0Q130 0 160 -33Q188 -64 208 -64Q228 -64 237 -49T247 -3Q247 39 238 117Q200 434 200 895Z"/><glyph unicode="≈" horiz-adv-x="1075" d="M1018 982Q863 851 740 851Q687 851 639 865T478 934Q382 980 335 980Q278 980 221 948T57 816V1094Q201 1224 347 1224Q432 1224 578 1153Q696 1096 747 1096Q845 1096 1018 1258V982ZM1018 596L1004 585Q857 465 740 465Q687 465 639 479T478 547Q382 594 335 594Q287 594 227 565T57 430V708Q201 837 347 837Q432 837 578 767Q696 710 747 710Q845 710 1018 872V596Z"/><glyph unicode="≠" horiz-adv-x="1092" d="M65 1122H555L720 1541H943L781 1122H1027V878H686L632 740H1027V496H537L371 77H145L311 496H65V740H406L461 878H65V1122Z"/><glyph unicode="≡" horiz-adv-x="1092" d="M65 1190H1007V946H65V1190ZM65 808H1007V564H65V808ZM65 426H1007V182H65V426Z"/><glyph unicode="≤" horiz-adv-x="1092" d="M1027 486L65 887V1090L1027 1492V1228L433 989L1027 751V486ZM64 406H1028V162H64V406Z"/><glyph unicode="≥" horiz-adv-x="1092" d="M65 1492L1027 1092V888L65 486V751L659 989L65 1227V1492ZM64 406H1028V162H64V406Z"/><glyph unicode="⌂" horiz-adv-x="1229" d="M153 0V634L614 1153L1076 634V0H153ZM234 81H995V600L614 1027L234 600V81Z"/><glyph unicode="⌐" horiz-adv-x="1092" d="M1029 1126H65V492H309V881H1029V1126Z"/><glyph unicode="⌠" horiz-adv-x="1237" d="M691 -515H546V1296Q546 1515 635 1626T838 1737Q905 1737 940 1705T976 1628Q976 1588 951 1562T888 1536Q858 1536 831 1551Q813 1561 790 1597T743 1634Q726 1634 712 1622Q702 1614 698 1595Q691 1562 691 1456V-515Z"/><glyph unicode="⌡" horiz-adv-x="1237" d="M546 1737H691V-74Q691 -293 602 -404T399 -515Q332 -515 297 -483T261 -406Q261 -366 286 -340T348 -314Q379 -314 407 -330Q425 -340 448 -376T494 -412Q511 -412 525 -401Q535 -393 539 -372Q546 -340 546 -234V1737Z"/><glyph unicode="─" horiz-adv-x="1451" d="M1473 534H-23V709H1473V534Z"/><glyph unicode="│" horiz-adv-x="1451" d="M638 -621V1864H813V-621H638Z"/><glyph unicode="┌" horiz-adv-x="1451" d="M1474 709V534H813V-621H638V709H1474Z"/><glyph unicode="┐" horiz-adv-x="1451" d="M637 534H-23V709H812V-621H637V534Z"/><glyph unicode="└" horiz-adv-x="1451" d="M638 534V1864H813V709H1474V534H638Z"/><glyph unicode="┘" horiz-adv-x="1451" d="M812 534H-23V709H637V1864H812V534Z"/><glyph unicode="├" horiz-adv-x="1451" d="M638 -621V1864H813V709H1474V534H813V-621H638Z"/><glyph unicode="┤" horiz-adv-x="1451" d="M637 -621V534H-23V709H637V1864H812V-621H637Z"/><glyph unicode="┬" horiz-adv-x="1451" d="M637 534H-23V709H1473V534H812V-621H637V534Z"/><glyph unicode="┴" horiz-adv-x="1451" d="M1473 534H-23V709H637V1864H812V709H1473V534Z"/><glyph unicode="┼" horiz-adv-x="1451" d="M637 534H-23V709H637V1864H812V709H1473V534H812V-621H637V534Z"/><glyph unicode="═" horiz-adv-x="1451" d="M1473 724H-23V899H1473V724ZM1473 344H-23V519H1473V344Z"/><glyph unicode="║" horiz-adv-x="1451" d="M829 -621V1864H1004V-621H829ZM448 -621V1864H623V-621H448Z"/><glyph unicode="╒" horiz-adv-x="1451" d="M638 -621V899H1474V724H813V519H1474V344H813V-621H638Z"/><glyph unicode="╓" horiz-adv-x="1451" d="M448 -621V709H1475V534H1004V-621H829V534H623V-621H448Z"/><glyph unicode="╔" horiz-adv-x="1451" d="M623 -621H448V899H1474V724H623V-621ZM1004 344V-621H829V519H1474V344H1004Z"/><glyph unicode="╕" horiz-adv-x="1451" d="M637 344H-23V519H637V724H-23V899H812V-621H637V344Z"/><glyph unicode="╖" horiz-adv-x="1451" d="M448 -621V534H-23V709H1003V-621H828V534H622V-621H448Z"/><glyph unicode="╗" horiz-adv-x="1451" d="M828 -621V724H-23V899H1003V-621H828ZM447 344H-23V519H622V-621H447V344Z"/><glyph unicode="╘" horiz-adv-x="1451" d="M638 344V1864H813V899H1474V724H813V519H1474V344H638Z"/><glyph unicode="╙" horiz-adv-x="1451" d="M1475 534H448V1864H623V709H829V1864H1004V709H1475V534Z"/><glyph unicode="╚" horiz-adv-x="1451" d="M623 1864V519H1473V344H448V1864H623ZM1004 899H1474V724H829V1864H1004V899Z"/><glyph unicode="╛" horiz-adv-x="1451" d="M812 344H-23V519H637V724H-23V899H637V1864H812V344Z"/><glyph unicode="╜" horiz-adv-x="1451" d="M1003 534H-23V709H447V1864H622V709H828V1864H1003V534Z"/><glyph unicode="╝" horiz-adv-x="1451" d="M828 1864H1003V344H-23V519H828V1864ZM447 899V1864H622V724H-23V899H447Z"/><glyph unicode="╞" horiz-adv-x="1451" d="M638 -621V1864H813V899H1474V724H813V519H1474V344H813V-621H638Z"/><glyph unicode="╟" horiz-adv-x="1451" d="M829 -621V1864H1004V709H1474V534H1004V-621H829ZM448 -621V1864H623V-621H448Z"/><glyph unicode="╠" horiz-adv-x="1451" d="M448 -621V1864H623V-621H448ZM829 724V1864H1004V899H1474V724H829ZM829 -621V519H1474V344H1004V-621H829Z"/><glyph unicode="╡" horiz-adv-x="1451" d="M637 344H-23V519H637V724H-23V899H637V1864H812V-621H637V344Z"/><glyph unicode="╢" horiz-adv-x="1451" d="M447 -621L448 534H-23V709H447V1864H622V-621H447ZM828 -621V1864H1003V-621H828Z"/><glyph unicode="╣" horiz-adv-x="1451" d="M828 -621V1864H1003V-621H828ZM622 1864V724H-23V899H447V1864H622ZM447 344H-23V519H622V-621H447V344Z"/><glyph unicode="╤" horiz-adv-x="1451" d="M1473 724H-23V899H1473V724ZM637 344H-23V519H1473V344H812V-621H637V344Z"/><glyph unicode="╥" horiz-adv-x="1451" d="M447 -621V534H-23V709H1473V534H1003V-621H828V534H622V-621H447Z"/><glyph unicode="╦" horiz-adv-x="1451" d="M1473 724H-23V899H1473V724ZM447 344H-23V519H622V-621H447V344ZM828 -621V519H1473V344H1003V-621H828Z"/><glyph unicode="╧" horiz-adv-x="1451" d="M1473 724H-23V899H637V1864H812V899H1473V724ZM1473 344H-23V519H1473V344Z"/><glyph unicode="╨" horiz-adv-x="1451" d="M1473 534H-23V709H447V1864H622V709H828V1864H1003V709H1473V534Z"/><glyph unicode="╩" horiz-adv-x="1451" d="M622 724H-23V899H447V1864H622V724ZM1473 724H828V1864H1003V899H1473V724ZM1473 344H-23V519H1473V344Z"/><glyph unicode="╪" horiz-adv-x="1451" d="M637 344H-23V519H637V724H-23V899H637V1864H812V899H1473V724H812V519H1473V344H812V-621H637V344Z"/><glyph unicode="╫" horiz-adv-x="1451" d="M447 -621V534H-23V709H447V1864H622V709H828V1864H1003V709H1473V534H1003V-621H828V534H622V-621H447Z"/><glyph unicode="╬" horiz-adv-x="1451" d="M1003 899H1473V724H828V1864H1003V899ZM447 899V1864H622V724H-23V899H447ZM447 344H-23V519H622V-621H447V344ZM1003 344V-621H828V519H1473V344H1003Z"/><glyph unicode="▀" horiz-adv-x="1451" d="M1473 621H-23V1864H1473V621Z"/><glyph unicode="▄" horiz-adv-x="1451" d="M1473 -621H-23V621H1473V-621Z"/><glyph unicode="█" horiz-adv-x="1451" d="M-23 -621V1864H1473V-621H-23Z"/><glyph unicode="▌" horiz-adv-x="1451" d="M-23 -621V1864H725V-621H-23Z"/><glyph unicode="▐" horiz-adv-x="1451" d="M726 -621V1864H1474V-621H726Z"/><glyph unicode="░" horiz-adv-x="1451" d="M0 1864H121V1739H0V1864ZM482 1864H603V1739H482V1864ZM965 1864H1086V1739H965V1864ZM241 1615H362V1490H241V1615ZM723 1615H844V1490H723V1615ZM1206 1615H1327V1490H1206V1615ZM965 1366H1086V1241H965V1366ZM482 1366H603V1241H482V1366ZM0 1366H121V1241H0V1366ZM1206 1117H1327V992H1206V1117ZM723 1117H844V992H723V1117ZM241 1117H362V992H241V1117ZM0 867H121V742H0V867ZM482 867H603V742H482V867ZM965 867H1086V742H965V867ZM1206 618H1327V493H1206V618ZM723 618H844V493H723V618ZM241 618H362V493H241V618ZM0 369H121V244H0V369ZM482 369H603V244H482V369ZM965 369H1086V244H965V369ZM241 120H362V-5H241V120ZM723 120H844V-5H723V120ZM1206 120H1327V-5H1206V120ZM965 -130H1086V-255H965V-130ZM482 -130H603V-255H482V-130ZM0 -130H121V-255H0V-130ZM241 -379H362V-504H241V-379ZM723 -379H844V-504H723V-379ZM1206 -379H1327V-504H1206V-379Z"/><glyph unicode="▒" horiz-adv-x="1451" d="M121 1864H241V1739H121V1864ZM362 1864H482V1739H362V1864ZM603 1864H724V1739H603V1864ZM844 1864H965V1739H844V1864ZM1086 1864H1206V1739H1086V1864ZM1327 1864H1447V1739H1327V1864ZM0 1615H121V1490H0V1615ZM241 1615H362V1490H241V1615ZM482 1615H603V1490H482V1615ZM724 1615H844V1490H724V1615ZM965 1615H1086V1490H965V1615ZM1206 1615H1327V1490H1206V1615ZM121 1366H241V1241H121V1366ZM362 1366H482V1241H362V1366ZM603 1366H724V1241H603V1366ZM844 1366H965V1241H844V1366ZM1086 1366H1206V1241H1086V1366ZM1327 1366H1447V1241H1327V1366ZM241 1116H362V992H241V1116ZM482 1116H603V992H482V1116ZM724 1116H844V992H724V1116ZM965 1116H1086V992H965V1116ZM1206 1116H1327V992H1206V1116ZM0 1116H121V992H0V1116ZM121 867H241V742H121V867ZM362 867H482V742H362V867ZM603 867H724V742H603V867ZM844 867H965V742H844V867ZM1086 867H1206V742H1086V867ZM1327 867H1447V742H1327V867ZM0 618H121V493H0V618ZM482 618H603V493H482V618ZM724 618H844V493H724V618ZM965 618H1086V493H965V618ZM1206 618H1327V493H1206V618ZM241 618H362V493H241V618ZM1327 369H1447V244H1327V369ZM1086 369H1206V244H1086V369ZM844 369H965V244H844V369ZM603 369H724V244H603V369ZM362 369H482V244H362V369ZM121 369H241V244H121V369ZM0 119H121V-5H0V119ZM241 119H362V-5H241V119ZM482 119H603V-5H482V119ZM724 119H844V-5H724V119ZM965 119H1086V-5H965V119ZM1206 119H1327V-5H1206V119ZM1327 -130H1447V-255H1327V-130ZM1086 -130H1206V-255H1086V-130ZM844 -130H965V-255H844V-130ZM603 -130H724V-255H603V-130ZM362 -130H482V-255H362V-130ZM121 -130H241V-255H121V-130ZM0 -379H121V-504H0V-379ZM241 -379H362V-504H241V-379ZM482 -379H603V-504H482V-379ZM724 -379H844V-504H724V-379ZM965 -380L1086 -379V-504H965V-380ZM1206 -379H1327V-504H1206V-379Z"/><glyph unicode="▓" horiz-adv-x="1451" d="M1447 1490V1116H1327V992H1447V618H1327V493H1447V119H1327V-5H1447V-379H1327V-504H1447V-628H0V-255H121V-130H0V244H121V369H0V742H121V867H0V1241H121V1366H0V1739H121V1864H241V1739H362V1864H482V1739H603V1864H724V1739H844V1864H965V1739H1086V1864H1206V1739H1327V1864H1447V1615H1327V1490H1447ZM121 1615V1490H241V1615H121ZM362 1615V1490H482V1615H362ZM603 1615V1490H724V1615H603ZM844 1615V1490H965V1615H844ZM1086 1615V1490H1206V1615H1086ZM1327 1366H1206V1241H1327V1366ZM1086 1366H965V1241H1086V1366ZM844 1366H724V1241H844V1366ZM603 1366H482V1241H603V1366ZM362 1366H241V1241H362V1366ZM121 1116V992H241V1116H121ZM362 1116V992H482V1116H362ZM603 1116V992H724V1116H603ZM844 1116V992H965V1116H844ZM1086 1116V992H1206V1116H1086ZM362 867H241V742H362V867ZM482 867V742H603V867H482ZM724 867V742H844V867H724ZM965 867V742H1086V867H965ZM1206 867V742H1327V867H1206ZM121 618V493H241V618H121ZM603 618V493H724V618H603ZM482 493V618H362V493H482ZM844 618V493H965V618H844ZM1086 618V493H1206V618H1086ZM1327 244V369H1206V244H1327ZM1086 244V369H965V244H1086ZM844 244V369H724V244H844ZM603 244V369H482V244H603ZM362 244V369H241V244H362ZM121 119V-5H241V119H121ZM362 119V-5H482V119H362ZM603 119V-5H724V119H603ZM844 119V-5H965V119H844ZM1086 119V-5H1206V119H1086ZM1327 -255V-130H1206V-255H1327ZM1086 -255V-130H965V-255H1086ZM844 -255V-130H724V-255H844ZM603 -255V-130H482V-255H603ZM362 -255V-130H241V-255H362ZM121 -379V-504H241V-379H121ZM362 -379V-504H482V-379H362ZM603 -379V-504H724V-379H603ZM844 -379V-504H965V-379H844ZM1086 -379V-504H1206V-379H1086Z"/><glyph unicode="■" horiz-adv-x="1237" d="M146 944H1090V0H146V944Z"/><glyph unicode="□" horiz-adv-x="1237" d="M146 944H1090V0H146V944ZM222 868V76H1014V868H222Z"/><glyph unicode="▪" horiz-adv-x="726" d="M594 909V445H131V908L594 909Z"/><glyph unicode="▫" horiz-adv-x="726" d="M594 909V445H131V908L594 909ZM518 833L207 832V521H518V833Z"/><glyph unicode="▬" horiz-adv-x="2048" d="M340 386H1708V0H340V386Z"/><glyph unicode="▲" horiz-adv-x="2027" d="M304 0L1014 1419L1724 0H304Z"/><glyph unicode="►" horiz-adv-x="2027" d="M288 1417L1739 693L288 -31V1417Z"/><glyph unicode="▼" horiz-adv-x="2027" d="M1724 1388L1014 -31L304 1388H1724Z"/><glyph unicode="◄" horiz-adv-x="2027" d="M1739 1417V-31L288 693L1739 1417Z"/><glyph unicode="◊" horiz-adv-x="1012" d="M548 1422L966 709L548 0H437L46 709L437 1422H548ZM494 1325L154 709L494 94L853 709L494 1325Z"/><glyph unicode="○" horiz-adv-x="1237" d="M619 1018Q729 1018 835 961T1000 798T1059 578Q1059 395 930 266T619 137Q436 137 307 266T178 578Q178 693 237 798T402 961T619 1018ZM619 942Q526 942 439 895T303 760T254 578Q254 427 361 320T619 213Q770 213 876 320T983 578Q983 672 934 760T798 895T619 942Z"/><glyph unicode="●" horiz-adv-x="1237" d="M619 1018Q729 1018 835 961T1000 798T1059 578Q1059 395 930 266T619 137Q436 137 307 266T178 578Q178 693 237 798T402 961T619 1018Z"/><glyph unicode="◘" horiz-adv-x="1237" d="M128 0V980H1108V0H128ZM618 692Q534 692 475 633T416 490Q416 407 475 348T618 288Q702 288 761 347T820 490Q820 574 761 633T618 692Z"/><glyph unicode="◙" horiz-adv-x="1237" d="M42 0V1155H1197V0H42ZM619 1018Q508 1018 403 961T238 798T179 577Q179 395 308 266T619 137Q802 137 931 266T1060 577Q1060 692 1001 798T837 961T619 1018ZM620 942Q711 942 798 895T935 761T984 577Q984 426 878 320T620 213Q468 213 362 319T255 577Q255 673 304 760T440 895T620 942Z"/><glyph unicode="◦" horiz-adv-x="726" d="M363 928Q467 928 540 855T614 677Q614 573 541 500T363 426Q259 426 186 499T112 677Q112 781 185 854T363 928ZM363 852Q290 852 239 801T188 677Q188 604 239 553T363 502Q435 502 486 553T538 677Q538 749 487 800T363 852Z"/><glyph unicode="☺" horiz-adv-x="2048" d="M1024 1156Q1184 1156 1337 1074T1576 838T1662 518Q1662 353 1578 202T1341 -34T1024 -119Q858 -119 707 -35T471 201T386 518Q386 684 471 837T710 1073T1024 1156ZM1024 1063Q887 1063 757 993T553 791T479 518Q479 377 551 248T753 46T1024 -26Q1165 -26 1295 46T1497 247T1569 518Q1569 660 1496 791T1292 992T1024 1063ZM779 731Q813 731 836 708T860 650Q860 617 837 593T779 569Q746 569 722 593T698 650Q698 684 722 707T779 731ZM1268 731Q1302 731 1325 708T1349 650Q1349 617 1326 593T1268 569Q1235 569 1211 593T1187 650Q1187 684 1210 707T1268 731ZM730 313L792 349Q871 205 1024 205Q1177 205 1255 349L1318 313Q1268 218 1195 168T1024 118Q926 118 853 168T730 313Z"/><glyph unicode="☻" horiz-adv-x="2048" d="M1024 1156Q1184 1156 1337 1074T1576 838T1662 518Q1662 353 1578 202T1341 -34T1024 -119Q858 -119 707 -35T471 201T386 518Q386 684 471 837T710 1073T1024 1156ZM779 731Q746 731 722 708T698 650Q698 617 722 593T779 569Q813 569 836 593T860 650Q860 684 837 707T779 731ZM1268 731Q1234 731 1211 708T1187 650Q1187 617 1211 593T1268 569Q1302 569 1325 593T1349 650Q1349 684 1326 707T1268 731ZM730 313Q780 218 853 168T1024 118Q1121 118 1194 168T1318 313L1255 349Q1177 205 1024 205Q871 205 792 349L730 313Z"/><glyph unicode="☼" horiz-adv-x="1877" d="M902 1621H978V1284Q1080 1277 1159 1246T1327 1143L1617 1427L1669 1374L1383 1088Q1456 993 1486 919Q1524 823 1527 734H1862V665H1527Q1508 472 1384 314L1669 23L1612 -27L1329 255Q1231 183 1158 155T978 114V-223H902V114Q790 129 714 160T557 252L263 -26L212 25L497 311Q431 395 397 477T352 665H16V734H352Q361 840 394 919T496 1083L212 1370L260 1427L552 1145Q653 1215 731 1245T902 1284V1621ZM937 1211Q808 1211 685 1145T494 956T425 699Q425 566 492 444T682 254T937 186Q1070 186 1192 254T1382 444T1450 699Q1450 832 1381 955T1189 1145T937 1211Z"/><glyph unicode="♀" horiz-adv-x="1536" d="M796 461V59H1255V0H796V-439H737V0H277V59H737V461Q634 461 512 526T317 717T244 983Q244 1119 313 1244T507 1438T768 1507Q904 1507 1028 1438T1222 1244T1291 983Q1291 774 1148 623T796 461ZM767 1451Q649 1451 537 1391T361 1217T298 982Q298 787 435 650T767 512Q962 512 1099 649T1237 982Q1237 1104 1174 1217T999 1390T767 1451Z"/><glyph unicode="♂" horiz-adv-x="1536" d="M1216 1620L1252 1604L1415 938L1358 923L1216 1504L858 736Q1006 661 1082 534T1158 262Q1158 126 1089 2T896 -192T634 -262Q498 -262 374 -193T180 1T111 262Q111 479 264 632T637 785Q715 785 803 758L1163 1529L626 1264L602 1317L1216 1620ZM634 731Q516 731 404 671T228 497T165 262Q165 67 302 -70T634 -208Q829 -208 966 -71T1104 262Q1104 384 1041 497T866 670T634 731Z"/><glyph unicode="♠" horiz-adv-x="1344" d="M673 1231Q699 1123 753 1038T945 828T1121 635T1158 498Q1158 403 1094 339T940 275Q858 275 786 332Q732 374 685 465Q686 318 723 232T843 96T1062 37L1069 0H277L284 37Q468 37 569 144T667 465Q622 370 556 323T406 275Q316 275 251 340T186 494Q186 568 218 627Q263 710 364 793T514 930Q588 1013 621 1078T673 1231Z"/><glyph unicode="♣" horiz-adv-x="1344" d="M1098 0H250L258 34Q423 69 477 103Q558 154 609 254T661 464Q661 480 660 511Q599 387 512 330T333 273Q217 273 136 354T55 553Q55 669 129 748T294 830Q357 828 460 777Q418 846 406 882T393 959Q393 1074 472 1152T670 1231Q787 1231 867 1153T948 963Q948 875 879 777Q963 817 980 822Q1007 830 1041 830Q1141 830 1214 752T1288 557Q1288 437 1208 356T1011 273Q934 277 877 306T769 386Q734 423 682 511Q686 352 730 260T867 106Q929 65 1090 34L1098 0Z"/><glyph unicode="♥" horiz-adv-x="1344" d="M674 -24Q643 94 586 197T363 519Q242 679 214 722Q168 792 148 850T127 969Q127 1080 201 1155T381 1231Q494 1230 575 1152Q636 1094 674 979Q706 1091 766 1150Q849 1231 957 1231Q1066 1231 1141 1157T1217 981Q1217 890 1174 793T1003 536Q839 329 764 196Q705 91 674 -24Z"/><glyph unicode="♦" horiz-adv-x="1344" d="M671 1234Q759 1080 889 907Q1039 707 1131 604Q1057 526 889 302Q753 120 671 -24Q644 28 597 97Q516 217 396 376Q370 411 213 604Q314 719 473 932Q591 1090 671 1234Z"/><glyph unicode="♪" horiz-adv-x="1024" d="M486 1363H524Q696 1363 751 1349Q830 1329 890 1272Q935 1230 961 1154T987 975V872H888V915Q888 983 860 1030T775 1103Q702 1135 613 1135H585V300Q585 179 553 112T443 4T273 -37Q164 -37 101 24T37 186Q37 291 113 362T312 434Q390 434 486 388V1363Z"/><glyph unicode="♫" horiz-adv-x="1536" d="M534 1271L1330 1519V411Q1330 287 1299 224T1192 120T1021 79Q912 79 847 141T782 303Q782 403 859 475T1058 548Q1098 548 1128 541T1228 505V1229L633 1044V208Q633 87 601 20T491 -88T321 -128Q212 -128 149 -67T85 94Q85 199 161 270T360 342Q438 342 534 296V1271Z"/><glyph unicode="ﬁ" horiz-adv-x="1148" d="M1075 1619V1408H659V1619H1075ZM587 1619V1414Q462 1414 440 1403T417 1337V1295H587V1085H491V0H87V1085H4V1295H87Q87 1426 96 1470T140 1548T240 1601T439 1619H587ZM1075 1327V0H659V1327H1075Z"/><glyph unicode="ﬂ" horiz-adv-x="1145" d="M587 1619V1414Q462 1414 440 1403T417 1337V1295H587V1085H491V0H87V1085H4V1295H87Q87 1426 96 1470T140 1548T240 1601T439 1619H587ZM1072 1619V0H656V1619H1072Z"/></font>
</defs>
</svg>
