<?xml version="1.0" encoding="UTF-8"?><svg xmlns="http://www.w3.org/2000/svg" width="100%" height="100%"><defs><font id="web" horiz-adv-x="766"><!--





NOTICE: --><font-face font-family="" units-per-em="2048" panose-1="2 15 4 3 2 2 8 2 9 4" ascent="1948" descent="-549" alphabetic="0"/><missing-glyph horiz-adv-x="1024" d="M51 0V1536H973V0H51ZM179 128H845V1408H179V128Z"/><glyph unicode=" " horiz-adv-x="638"/><glyph unicode="!" horiz-adv-x="434" d="M272 1245V371Q272 326 215 326Q164 326 164 356V1251Q164 1292 227 1292Q272 1292 272 1245ZM289 55Q289 31 267 0T215 -31Q141 -31 141 55Q141 77 165 109T215 141Q249 141 269 120T289 55Z"/><glyph unicode="&quot;" horiz-adv-x="692" d="M260 1356V930Q260 910 240 899T201 887Q152 887 152 920V1348Q152 1365 173 1377T215 1389Q260 1389 260 1356ZM539 1352V926Q539 906 519 895T479 883Q430 883 430 915V1343Q430 1361 452 1372T494 1384Q539 1384 539 1352Z"/><glyph unicode="#" horiz-adv-x="1137" d="M76 883L383 895Q423 1012 467 1138T530 1319Q540 1350 563 1350Q589 1350 608 1337T627 1307Q627 1298 618 1280Q601 1231 560 1113T485 899L754 911L913 1352Q923 1373 928 1377T946 1382Q973 1382 991 1371T1010 1343Q1010 1331 1001 1313L858 915L1024 924Q1028 925 1031 925T1038 926Q1081 926 1081 860Q1081 845 1075 840T1051 834L825 823Q771 675 759 642T737 582L1047 596Q1068 596 1079 578T1090 535Q1090 523 1080 515T1061 506L702 489Q702 486 665 384T595 191T553 75T532 20Q524 -12 498 -12Q484 -12 459 -2T434 20Q434 27 440 45L600 485L336 475L170 4Q160 -25 137 -25Q121 -25 98 -13T74 12Q74 23 78 29L233 471L88 465Q73 465 63 483T53 520Q53 555 84 555L264 563Q274 590 302 669T350 803L80 793Q66 793 56 808T45 842Q45 857 54 870T76 883ZM633 578L721 819L453 807L367 567L633 578Z"/><glyph unicode="$" horiz-adv-x="1063" d="M571 750L606 735Q712 691 776 650T878 543T915 381Q915 212 814 132T573 35V-147Q573 -182 524 -182Q502 -182 493 -177T483 -160V33Q387 39 312 66T152 145Q140 153 135 157T129 167T127 188Q127 204 148 228T184 252Q192 252 200 247T219 235T238 221Q356 137 483 125V684L420 711Q317 755 259 789T162 882T123 1024Q123 1133 180 1204T321 1307T483 1346V1432Q483 1473 539 1473Q573 1473 573 1444V1348Q681 1339 831 1276Q874 1261 874 1235Q874 1220 856 1196T819 1171Q811 1171 806 1173T790 1182T768 1194Q730 1214 669 1233T571 1253V750ZM473 801L483 797V1253Q426 1248 367 1225T268 1153T227 1024Q227 968 262 927T346 859T473 801ZM571 641V131Q664 145 737 202T811 373Q811 475 752 531T571 641Z"/><glyph unicode="%" horiz-adv-x="1239" d="M465 1137Q465 1229 434 1264T338 1300Q278 1300 239 1242T199 1100Q199 936 322 936Q380 936 422 991T465 1137ZM569 1133Q569 1059 534 995T441 893T319 856Q220 856 156 920T92 1102Q92 1173 125 1237T216 1342T338 1382Q446 1382 507 1317T569 1133ZM238 31L913 1352Q929 1382 946 1382Q971 1382 988 1366T1006 1331Q1006 1319 1001 1313L330 6Q311 -27 295 -27Q280 -27 257 -11T233 14Q233 25 238 31ZM1141 252Q1141 178 1106 114T1013 12T891 -25Q792 -25 728 39T664 221Q664 294 697 358T787 462T909 502Q980 502 1032 473T1113 388T1141 252ZM1036 256Q1036 349 1005 384T909 420Q849 420 810 362T770 219Q770 55 893 55Q953 55 994 110T1036 256Z"/><glyph unicode="&amp;" horiz-adv-x="1645" d="M1765 815V799Q1765 705 1669 668T1389 631V522Q1389 353 1298 229T1061 40T756 -25Q602 -25 468 35T255 212T176 494Q176 641 260 743T444 887Q354 973 354 1102Q354 1152 379 1206T450 1305T566 1378T721 1407Q793 1407 843 1396T923 1372T996 1333T1049 1300Q1071 1288 1071 1264Q1071 1241 1047 1218T1004 1194Q992 1194 985 1197T968 1207T952 1219Q891 1263 848 1283T721 1303Q644 1303 587 1272T499 1195T469 1106Q469 1036 504 984T602 918Q622 912 628 906T635 877Q635 860 626 841T602 821H571Q523 821 455 779T339 662T291 492Q291 394 330 316T437 185T588 106T756 80Q891 80 1010 130T1203 280T1278 518V631Q1127 627 1034 600T940 496V481Q940 470 919 460T862 449Q825 449 825 496Q825 587 888 639T1060 712T1319 733H1403Q1513 733 1582 746T1651 799V813Q1651 836 1674 848T1731 860Q1765 860 1765 815Z"/><glyph unicode="'" horiz-adv-x="410" d="M260 1356V930Q260 910 240 899T201 887Q152 887 152 920V1348Q152 1365 173 1377T215 1389Q260 1389 260 1356Z"/><glyph unicode="(" horiz-adv-x="676" d="M557 1386Q557 1371 543 1352Q471 1249 427 1133T361 881T340 586Q340 466 351 361T385 167T446 -9T541 -180Q555 -203 555 -219Q555 -233 545 -249T518 -266Q504 -266 455 -211T351 -49T258 219T219 588Q219 795 258 956T351 1222T456 1381T520 1436Q536 1436 546 1421T557 1386Z"/><glyph unicode=")" horiz-adv-x="676" d="M457 588Q457 319 395 128T258 -165T158 -266Q141 -266 131 -250T121 -219Q121 -203 135 -180Q191 -97 228 -14T290 164T325 360T336 586Q336 745 315 880T250 1132T133 1352Q119 1371 119 1386Q119 1406 129 1421T156 1436Q170 1436 220 1382T324 1222T418 956T457 588Z"/><glyph unicode="*" horiz-adv-x="844" d="M451 1440V1159L637 1341Q655 1362 664 1362Q675 1362 695 1346T715 1315Q715 1300 709 1294L453 1051L713 844Q723 837 723 821Q723 801 704 782T674 762Q659 762 651 770L451 942V666Q451 646 433 635T395 623Q354 623 354 655V928L199 768Q186 756 174 756Q152 756 136 772T119 807Q119 815 125 821L354 1038L117 1223Q104 1233 104 1247Q104 1267 123 1287T154 1307Q163 1307 174 1296L354 1155V1432Q354 1449 374 1458T414 1468Q451 1468 451 1440Z"/><glyph unicode="+" horiz-adv-x="987" d="M520 645L913 680Q933 680 944 659T956 608Q956 585 928 580L520 545V176Q520 159 499 148T457 137Q439 137 427 145T414 164V535L72 508Q57 508 47 526T37 563Q37 580 46 593T68 606L414 637V969Q414 989 435 1002T477 1016Q520 1016 520 987V645Z"/><glyph unicode="," horiz-adv-x="307" d="M37 -227L104 137Q108 155 111 162Q125 190 193 190Q208 190 216 184T225 164Q225 159 221 135L141 -248Q139 -264 115 -272Q77 -279 61 -279Q33 -279 33 -254Q33 -249 37 -227Z"/><glyph unicode="-" horiz-adv-x="639" d="M84 541L537 578Q543 579 548 579T563 580Q574 580 581 565T588 530Q588 482 549 479L98 442Q92 442 87 442T76 440Q49 440 49 494Q49 538 84 541Z"/><glyph unicode="." horiz-adv-x="307" d="M231 55Q231 30 209 0T158 -31Q84 -31 84 55Q84 77 108 109T158 141Q192 141 211 120T231 55Z"/><glyph unicode="/" horiz-adv-x="705" d="M12 -147L596 1413Q603 1432 609 1438T629 1444Q654 1444 676 1427T698 1393Q698 1380 694 1374L115 -172Q107 -205 80 -205Q65 -205 37 -189T8 -164Q8 -154 12 -147Z"/><glyph unicode="0" horiz-adv-x="1516" d="M1391 635Q1391 483 1345 360T1211 151T993 21T705 -25Q568 -25 458 17T269 140T148 337T106 600Q106 789 182 943T405 1184T752 1272Q906 1272 1026 1227T1227 1098T1349 896T1391 635ZM1276 635Q1276 757 1243 857T1146 1026T982 1132T752 1169Q623 1169 524 1127T358 1009T256 829T221 608Q221 483 254 385T350 218T505 114T713 78Q848 78 954 115T1131 223T1239 399T1276 635Z"/><glyph unicode="1" horiz-adv-x="698" d="M420 1366V41Q420 18 400 7T354 -4Q313 -4 313 31V1192L90 977Q78 965 66 965Q61 965 47 997T33 1038Q33 1051 55 1073L358 1370Q364 1376 371 1383T382 1393T391 1397Q399 1397 409 1387T420 1366Z"/><glyph unicode="2" horiz-adv-x="1044" d="M272 94L823 119Q833 120 840 120T858 121Q889 121 889 47Q889 29 879 25T842 18L195 -6Q182 -6 176 -6T162 -8Q131 -8 131 49Q131 57 150 82Q163 100 215 167T344 332T479 506Q568 621 618 695T697 851T727 1036Q727 1120 691 1181T591 1276T444 1309Q355 1309 313 1302T195 1272Q183 1270 176 1268T162 1266Q146 1266 135 1286T123 1337Q123 1351 127 1357T150 1370Q188 1383 263 1395T446 1407Q557 1407 649 1363T792 1236T844 1038Q844 932 806 835T721 673T551 446Q495 374 462 332T380 229T307 138T272 94Z"/><glyph unicode="3" horiz-adv-x="958" d="M279 659Q244 659 244 717Q244 770 272 770Q289 770 310 767T340 764Q409 764 488 792T624 886T682 1053Q682 1135 633 1192T511 1277T369 1305Q312 1305 259 1298T155 1281T104 1270Q90 1270 75 1292T59 1335Q59 1351 64 1358T88 1368Q214 1403 377 1403Q483 1403 579 1363T735 1244T795 1051Q795 938 722 854T543 721Q643 690 729 598T815 373Q815 223 735 133T550 8T360 -27Q286 -27 215 -20T98 -2Q84 1 78 9T72 35Q72 50 84 77T109 104Q117 104 120 103T128 101T143 98Q177 92 207 85T272 74T360 70Q416 70 494 94T636 185T700 369Q700 520 587 591T344 662Q330 662 312 661T279 659Z"/><glyph unicode="4" horiz-adv-x="950" d="M721 645L889 653Q899 653 907 637T915 606Q915 551 885 551L721 543V29Q721 9 699 0T649 -10Q634 -10 622 -1T610 20V539L31 516Q15 516 -1 523T-18 541Q-18 551 -8 561L666 1401Q680 1425 696 1425Q705 1425 713 1410T721 1376V645ZM170 621L610 639V1174L170 621Z"/><glyph unicode="5" horiz-adv-x="1044" d="M322 1276L254 825Q326 848 453 848Q543 848 626 820T773 737T875 600T913 418Q913 290 845 188T672 31T461 -25Q273 -25 129 12Q113 18 110 24T106 47Q106 72 117 101T143 131Q154 131 174 127Q204 119 248 108T345 89T461 80Q540 80 618 122T748 240T799 416Q799 513 752 588T625 703T453 743Q332 743 227 713Q215 709 194 703T166 696Q135 696 135 729Q135 738 139 762L229 1376L852 1395Q865 1395 875 1383T885 1358Q885 1334 875 1312T844 1290L322 1276Z"/><glyph unicode="6" horiz-adv-x="1141" d="M233 608V592Q286 666 371 722T584 778Q686 778 788 738T959 608T1028 375Q1028 265 983 185T870 60T727 -5T584 -25Q465 -25 358 27T182 203T113 530Q113 803 218 981T461 1248T716 1372T868 1407Q898 1407 905 1389Q909 1383 914 1360T920 1327Q920 1314 917 1311T895 1305Q785 1281 698 1254T499 1154T310 947T233 608ZM913 371Q913 528 811 601T584 674Q459 674 368 603T242 406Q245 317 290 242T412 123T584 80Q696 80 804 150T913 371Z"/><glyph unicode="7" horiz-adv-x="993" d="M96 1374L844 1395Q857 1395 869 1388T881 1368Q881 1360 874 1352L401 16Q394 -5 386 -11T358 -18Q342 -18 314 -7T285 10Q285 16 289 25L735 1292L96 1274Q89 1274 78 1295T66 1335Q66 1349 75 1361T96 1374Z"/><glyph unicode="8" horiz-adv-x="1044" d="M170 1061Q170 1152 216 1231T340 1356T506 1403Q578 1403 638 1383T747 1321T824 1214T852 1063Q852 958 805 889T692 784Q720 773 776 734T888 609T944 399Q944 251 874 156T703 18T516 -25Q428 -25 333 17T171 153T104 393Q104 507 140 587T230 713T338 780Q296 798 233 863T170 1061ZM737 1061Q737 1132 708 1186T626 1269T508 1298Q410 1298 348 1233T285 1061Q285 1004 313 951T393 866T516 834Q586 834 636 866T711 952T737 1061ZM829 395Q829 504 778 578T654 688T518 723Q473 723 422 706T324 651T249 549T219 397Q219 290 268 219T387 114T516 80Q581 80 653 109T777 209T829 395Z"/><glyph unicode="9" horiz-adv-x="1141" d="M907 782V799Q857 726 771 669T557 612Q454 612 352 652T182 783T113 1016Q113 1160 185 1250T360 1377T557 1415Q676 1415 783 1363T959 1187T1028 860Q1028 588 924 410T679 141T421 18T272 -16Q243 -16 236 2Q232 8 227 30T221 63Q221 76 224 79T246 86Q398 123 464 143T641 236T830 444T907 782ZM227 1020Q227 861 329 789T557 717Q641 717 710 750T828 843T899 985Q898 1052 871 1113T799 1217T692 1285T557 1311Q490 1311 414 1284T283 1190T227 1020Z"/><glyph unicode=":" horiz-adv-x="307" d="M231 55Q231 30 209 0T158 -31Q84 -31 84 55Q84 77 108 109T158 141Q192 141 211 120T231 55ZM225 670Q225 644 204 614T152 584Q78 584 78 670Q78 692 102 724T152 756Q186 756 205 735T225 670Z"/><glyph unicode=";" horiz-adv-x="307" d="M215 666Q215 641 193 611T141 580Q110 580 89 601T68 666Q68 688 91 720T141 752Q175 752 195 730T215 666ZM37 -227L104 137Q108 155 111 162Q125 190 193 190Q208 190 216 184T225 164Q225 159 221 135L141 -248Q139 -264 115 -272Q77 -279 61 -279Q33 -279 33 -254Q33 -249 37 -227Z"/><glyph unicode="&lt;" horiz-adv-x="987" d="M768 879L322 543L807 217Q813 213 821 204T829 182Q829 157 817 133T791 109Q775 109 750 127L199 502Q184 513 181 518T178 539Q178 564 199 580L713 967Q729 983 752 983Q759 983 766 972T778 943T786 907Q783 891 768 879Z"/><glyph unicode="=" horiz-adv-x="987" d="M68 797L913 866Q931 866 938 858T950 829Q956 820 956 799Q956 789 947 780T928 770L72 700Q57 700 47 718T37 756Q37 771 46 783T68 797ZM76 475L922 545Q939 545 946 536T958 510Q965 499 965 477Q965 467 955 458T936 449L80 379Q65 379 55 397T45 434Q45 471 76 475Z"/><glyph unicode="&gt;" horiz-adv-x="987" d="M233 211L680 547L195 872Q189 876 181 886T172 907Q172 930 185 955T211 981Q227 981 252 963L803 588Q823 572 823 551Q823 525 803 510L289 123Q272 106 250 106Q241 106 229 131T215 182Q218 199 233 211Z"/><glyph unicode="?" horiz-adv-x="823" d="M705 1069Q705 985 665 923T572 820T430 721Q398 701 368 681T321 645T293 603T281 543Q281 487 311 461T375 434Q429 434 463 453T539 516Q549 526 559 535T578 545Q593 545 620 527T647 496Q647 477 637 467Q578 401 521 370T373 338Q305 338 238 387T170 541Q170 592 186 628T229 692T299 747T377 799Q456 852 493 881T560 958T590 1069Q590 1140 550 1182T458 1240T369 1257Q306 1257 264 1246T174 1206Q153 1192 139 1192Q126 1192 109 1216T92 1255Q92 1271 94 1277T102 1285T115 1290Q187 1324 243 1340T365 1356Q428 1356 505 1334T644 1247T705 1069ZM455 55Q455 31 433 0T381 -31Q307 -31 307 55Q307 77 331 109T381 141Q415 141 435 120T455 55Z"/><glyph unicode="@" horiz-adv-x="1516" d="M944 754V780Q917 801 825 801Q739 801 663 759T544 655T500 535Q500 482 538 458T627 434Q698 434 772 491T895 628T944 754ZM831 893Q892 893 944 881V918Q944 948 1012 948Q1026 948 1037 938T1049 913V625Q1049 528 1082 476T1153 424Q1199 424 1241 465T1284 631Q1284 755 1250 855T1150 1027T982 1139T752 1178Q626 1178 524 1135T354 1014T249 831T213 608Q213 442 273 320T446 134T713 70Q804 70 945 119T1102 168Q1133 168 1146 155T1159 113Q1159 82 1086 49T905 -4T705 -25Q568 -25 458 17T269 140T148 337T106 600Q106 789 182 943T405 1184T752 1272Q955 1272 1100 1192T1318 968T1391 631Q1391 488 1323 410T1143 332Q1068 332 1023 379T963 475T944 547Q905 486 854 440T742 367T627 340Q534 340 463 380T391 530Q391 615 449 700T609 839T831 893Z"/><glyph unicode="A" horiz-adv-x="1284" d="M657 1397L1307 66Q1319 44 1319 37Q1319 24 1292 12T1251 0Q1213 0 1204 23L915 610L346 582L84 2Q77 -11 71 -14T45 -18Q24 -18 5 1T-14 35Q-14 48 -4 66L236 584Q218 592 209 610T199 645Q199 675 231 678L279 682L596 1380Q599 1392 610 1403T629 1415Q648 1415 657 1397ZM387 682L872 707L629 1219L387 682Z"/><glyph unicode="B" horiz-adv-x="1174" d="M334 1292V754Q422 758 470 759T526 760Q594 760 671 788T804 881T860 1049Q860 1155 796 1211T656 1285T524 1303Q426 1303 334 1292ZM334 655V86Q346 90 356 90Q397 90 450 86T547 82Q606 82 689 103T840 190T909 379Q909 480 847 544T697 635T530 662Q531 662 504 661T413 658T334 655ZM1028 383Q1028 216 934 127T730 11T547 -16Q439 -16 346 -10Q329 -8 313 10Q290 -10 262 -10Q241 -10 232 0T223 29V1280Q209 1280 198 1297T186 1335Q186 1355 197 1361T240 1374Q314 1391 377 1395T532 1399Q674 1399 773 1356T923 1234T975 1047Q975 935 907 847T741 719Q807 698 872 656T983 545T1028 383Z"/><glyph unicode="C" horiz-adv-x="1384" d="M1278 96Q1278 71 1271 64T1241 47Q1195 26 1146 10T1032 -16T885 -25Q741 -25 601 25T348 172T171 403T106 698Q106 892 202 1055T468 1312T852 1407Q947 1407 1013 1397T1121 1373T1233 1329Q1272 1313 1272 1284Q1272 1264 1255 1243T1219 1221Q1200 1221 1153 1241Q1056 1282 1006 1295T852 1309Q718 1309 602 1263T400 1132T269 936T223 698Q223 516 319 374T570 153T885 74Q974 74 1026 85T1163 133Q1211 156 1221 156Q1245 156 1261 137T1278 96Z"/><glyph unicode="D" horiz-adv-x="1610" d="M223 1366V1368Q223 1389 247 1403T295 1417Q322 1417 327 1412T334 1382Q411 1395 479 1397Q563 1403 672 1403Q836 1403 985 1359T1251 1230T1434 1019T1501 737Q1501 425 1331 255T957 30T602 -25Q537 -25 424 -18T223 4V1266Q203 1262 195 1262Q164 1262 164 1319Q164 1345 172 1351T223 1366ZM334 1292V92Q514 70 580 70Q689 70 823 97T1085 194T1298 398T1384 731Q1384 885 1316 996T1140 1177T913 1277T684 1309Q517 1309 334 1292Z"/><glyph unicode="E" horiz-adv-x="1083" d="M334 88L909 143Q917 144 923 144T940 145Q954 145 964 124T975 78Q975 42 932 39L311 -12Q271 -16 256 -16Q239 -16 226 -6T213 20Q213 27 217 41T223 61V1290Q216 1298 206 1314T195 1348Q195 1377 231 1380L811 1417Q831 1419 840 1420T857 1422T877 1423Q891 1423 901 1413T919 1389T926 1358Q926 1332 917 1327T883 1319L334 1286V776L872 817Q879 818 884 818T897 819Q917 819 927 797T938 748Q938 730 930 727T895 721L334 674V88Z"/><glyph unicode="F" horiz-adv-x="1012" d="M334 696L872 739Q879 740 884 740T899 741Q938 741 938 670Q938 640 895 637L334 592V49Q334 23 312 8T264 -8Q238 -8 231 4T223 35V1290Q216 1297 206 1312T195 1343Q195 1377 231 1380L811 1415Q869 1419 881 1419Q901 1419 913 1400T926 1358Q926 1333 916 1327T883 1319L334 1286V696Z"/><glyph unicode="G" horiz-adv-x="1485" d="M1190 682L748 653Q734 653 728 653T713 651Q698 651 688 672T678 717Q678 741 685 747T719 756Q837 764 955 770T1166 781T1268 786Q1300 786 1300 748V98Q1300 72 1241 47Q1161 11 1085 -7T885 -25Q741 -25 601 25T349 173T173 402T109 698Q109 844 163 973T318 1200T555 1353T852 1407Q947 1407 1013 1397T1121 1373T1233 1329Q1272 1312 1272 1276Q1272 1257 1256 1241T1219 1225Q1200 1225 1153 1245Q1061 1286 1010 1299T852 1313Q673 1313 529 1231T305 1008T225 698Q225 516 320 374T569 153T885 74Q978 74 1026 83T1161 131Q1168 134 1177 142T1190 154V682Z"/><glyph unicode="H" horiz-adv-x="1556" d="M1219 801V1372Q1219 1389 1240 1403T1284 1417Q1312 1417 1320 1411T1329 1384V33Q1329 18 1311 8T1272 -2Q1249 -2 1234 8T1219 33V700L334 645V14Q334 -23 266 -23Q241 -23 232 -19T223 2V637Q197 646 197 684Q197 717 223 733V1354Q223 1395 297 1395Q323 1395 328 1385T334 1348V743L1219 801Z"/><glyph unicode="I" horiz-adv-x="590" d="M238 29V1354Q238 1395 303 1395Q348 1395 348 1348V41Q348 -4 283 -4Q238 -4 238 29Z"/><glyph unicode="J" horiz-adv-x="549" d="M223 133V1329Q223 1356 240 1364T289 1372Q334 1372 334 1325V147Q334 7 283 -95T144 -251T-47 -305Q-124 -305 -186 -274Q-215 -261 -215 -242Q-215 -228 -198 -200T-160 -172Q-150 -172 -112 -189T-47 -207Q28 -207 90 -165T187 -47T223 133Z"/><glyph unicode="K" horiz-adv-x="1245" d="M334 1331V737L1016 1356Q1023 1363 1029 1370T1043 1380T1065 1384Q1081 1384 1102 1366T1124 1331Q1124 1322 1114 1312T1092 1292L449 725Q602 598 666 546T809 426T986 269T1176 88Q1188 76 1188 47Q1188 36 1166 18T1135 0Q1120 0 1116 1T1103 10T1085 27Q974 135 869 229T691 387T500 548T334 686V41Q334 -4 281 -4Q223 -4 223 29V1337Q223 1378 276 1378Q334 1378 334 1331Z"/><glyph unicode="L" horiz-adv-x="1044" d="M334 90L909 145Q916 146 921 146T936 147Q953 147 964 124T975 74Q975 42 932 39L311 -12Q271 -16 256 -16Q241 -16 227 -1T213 35Q213 42 217 47T223 53V1354Q223 1374 242 1385T287 1397Q315 1397 324 1388T334 1358V90Z"/><glyph unicode="M" horiz-adv-x="2019" d="M1661 1403L1901 57Q1905 29 1905 20Q1905 -14 1837 -14Q1804 -14 1798 20L1581 1178L1047 125Q1026 86 997 86Q977 86 967 106L459 1178L213 14Q209 -3 200 -9T172 -16Q106 -16 106 20Q106 28 108 37T113 57L399 1391Q403 1407 405 1416T413 1430T428 1436Q451 1436 471 1395L1010 272L1583 1397Q1606 1442 1636 1442Q1649 1442 1653 1433T1661 1403Z"/><glyph unicode="N" horiz-adv-x="1698" d="M1362 201V1348Q1362 1366 1382 1377T1425 1389Q1447 1389 1460 1379T1473 1356V2Q1473 -31 1446 -31Q1425 -31 1407 -8L334 1196V39Q334 19 314 6T266 -8Q243 -8 233 0T223 31V1384Q223 1395 234 1405T258 1415Q281 1415 299 1393L1362 201Z"/><glyph unicode="O" horiz-adv-x="1683" d="M1575 709Q1575 539 1520 401T1364 169T1118 25T793 -25Q590 -25 436 57T195 298T109 670Q109 826 159 961T307 1198T542 1354T846 1409Q1074 1409 1239 1323T1489 1078T1575 709ZM1458 709Q1458 848 1419 957T1301 1146T1107 1267T846 1309Q703 1309 587 1261T390 1128T267 926T225 678Q225 494 296 357T499 148T801 76Q1006 76 1153 151T1379 370T1458 709Z"/><glyph unicode="P" horiz-adv-x="1112" d="M223 23V1264Q186 1264 186 1321Q186 1347 206 1359T240 1374Q374 1403 506 1403Q601 1403 713 1378T916 1270T1008 1032Q1008 854 884 760T614 639T334 608V35Q334 17 312 4T268 -10Q223 -10 223 23ZM334 1288V709Q891 709 891 1032Q891 1148 817 1208T659 1286T506 1303Q435 1303 334 1288Z"/><glyph unicode="Q" horiz-adv-x="1683" d="M1870 -358Q1870 -387 1847 -404T1798 -422Q1683 -422 1580 -382T1397 -285T1206 -136T1047 -10Q989 -25 926 -31Q862 -37 793 -37Q642 -37 516 11T299 149T159 370T109 664Q109 821 159 958T306 1196T541 1353T846 1409Q1075 1409 1240 1322T1490 1075T1575 702Q1575 459 1469 289T1171 35Q1206 9 1295 -66T1464 -193T1635 -280T1825 -315Q1844 -315 1857 -328T1870 -358ZM1460 702Q1460 982 1300 1145T846 1309Q703 1309 588 1262T391 1126T266 922T223 672Q223 485 295 346T499 134T801 61Q955 61 1076 104T1283 230T1414 433T1460 702Z"/><glyph unicode="R" horiz-adv-x="1196" d="M545 637L1139 33Q1153 18 1153 2Q1153 -7 1122 -27T1075 -47Q1056 -47 1032 -23L401 633Q390 646 378 659T365 678Q365 711 395 711Q494 711 602 750T782 864T854 1038Q854 1123 815 1177T717 1259T605 1298T510 1309Q473 1309 442 1308T376 1302T334 1296V35Q334 14 313 2T266 -10Q223 -10 223 25V1286Q216 1297 206 1317T195 1346Q195 1366 200 1373T225 1384Q354 1405 504 1405Q605 1405 710 1374T892 1260T969 1036Q969 921 895 835T721 701T545 637Z"/><glyph unicode="S" horiz-adv-x="1063" d="M467 803L608 733Q694 691 743 663T831 597T892 504T915 369Q915 229 854 141T703 14T526 -25Q410 -25 328 2T154 88Q135 99 131 105T127 131Q127 147 145 172T178 197Q186 197 194 192T212 180T231 166Q285 129 331 108T425 77T526 68Q617 68 713 138T809 356Q809 462 745 523T563 641L420 711Q317 761 259 801T162 905T123 1065Q123 1199 193 1275T355 1379T530 1407Q607 1407 670 1391T831 1335Q874 1320 874 1294Q874 1279 856 1255T819 1231Q814 1231 806 1233T786 1240T764 1249Q675 1287 632 1301T530 1315Q475 1315 405 1296T282 1220T229 1065Q229 968 285 917T467 803Z"/><glyph unicode="T" horiz-adv-x="967" d="M1004 1403H1038Q1060 1403 1069 1395T1079 1354Q1079 1337 1067 1322T1040 1307H1008L539 1276V29Q539 -10 473 -10Q446 -10 437 -2T428 25V1268L14 1239Q-6 1237 -20 1235T-39 1233Q-59 1233 -70 1249T-82 1284Q-82 1302 -71 1318T-43 1335L1004 1403Z"/><glyph unicode="U" horiz-adv-x="1571" d="M1235 584V1368Q1235 1387 1256 1399T1296 1411Q1346 1411 1346 1376V563Q1346 411 1295 279T1115 61T772 -25Q571 -25 449 51T275 253T223 530V1356Q223 1374 243 1384T283 1395Q315 1395 324 1387T334 1362V561Q334 74 782 74Q915 74 1005 119T1145 238T1215 401T1235 584Z"/><glyph unicode="V" horiz-adv-x="1223" d="M635 188L1133 1378Q1142 1397 1147 1401T1169 1405Q1194 1405 1217 1388T1241 1352Q1241 1343 1229 1315L662 -4Q648 -33 631 -33Q611 -33 600 -6L10 1315Q0 1335 0 1348Q0 1360 30 1378T72 1397Q90 1397 97 1390T113 1362L635 188Z"/><glyph unicode="W" horiz-adv-x="2193" d="M1608 201L1999 1399Q2006 1421 2011 1425T2038 1430Q2059 1430 2081 1416T2103 1389Q2103 1384 2095 1356L1653 20Q1648 5 1635 -12T1614 -29Q1588 -29 1573 6L1087 1198L631 6Q624 -11 613 -21T592 -31Q585 -31 573 -14T555 18L66 1354Q57 1372 57 1384Q57 1395 83 1411T125 1427Q143 1427 147 1424T160 1397L604 217L1053 1389Q1067 1425 1087 1425Q1110 1425 1122 1393L1608 201Z"/><glyph unicode="X" horiz-adv-x="1204" d="M606 797L1028 1372Q1034 1379 1044 1391T1065 1403Q1092 1403 1115 1385T1139 1348Q1139 1335 1135 1327Q1084 1259 1003 1152T796 878T670 711Q724 638 819 509T1010 250T1159 47Q1163 39 1163 27Q1163 15 1139 -1T1087 -18Q1076 -18 1069 -11T1049 14L608 612L164 12Q142 -20 125 -20Q111 -20 80 -3T49 25Q49 37 53 45L541 709Q541 710 483 788T333 989T174 1202T78 1329Q74 1337 74 1350Q74 1368 97 1386T147 1405Q156 1405 162 1399T184 1374Q225 1318 297 1219T457 1001T606 797Z"/><glyph unicode="Y" horiz-adv-x="1118" d="M555 705L1085 1386Q1105 1411 1107 1413T1126 1415Q1139 1415 1163 1396T1188 1364Q1188 1345 1178 1331L602 604V29Q602 9 584 -7T543 -23Q492 -23 492 10V616L-43 1327Q-46 1332 -48 1336T-52 1344T-53 1362Q-53 1371 -29 1391T8 1411Q28 1411 30 1410T41 1395L555 705Z"/><glyph unicode="Z" horiz-adv-x="1096" d="M215 90L1044 111Q1060 111 1068 84T1077 35Q1077 10 1042 10L74 -8Q51 -8 51 18Q51 27 63 45L883 1305L129 1286Q117 1286 111 1286T98 1284Q66 1284 66 1325Q66 1380 98 1380L1020 1407Q1053 1407 1053 1393Q1053 1372 1038 1352L215 90Z"/><glyph unicode="[" horiz-adv-x="590" d="M281 1425L573 1450Q580 1450 589 1452T600 1454Q615 1454 627 1436T639 1395Q639 1371 631 1361T600 1350L338 1325V-315L565 -295Q578 -293 594 -293Q614 -293 623 -311T633 -354Q633 -377 624 -386T594 -397L317 -418Q277 -422 262 -422Q247 -422 233 -407T219 -371Q219 -365 223 -359T229 -352V1350Q228 1357 226 1375T223 1393Q223 1404 241 1413T281 1425Z"/><glyph unicode="\" horiz-adv-x="705" d="M109 1413L692 -147Q696 -154 696 -164Q696 -173 668 -189T625 -205Q598 -205 590 -172L10 1374Q6 1380 6 1393Q6 1411 28 1427T76 1444Q89 1444 96 1437T109 1413Z"/><glyph unicode="]" horiz-adv-x="590" d="M-2 1421L274 1442Q316 1446 330 1446Q346 1446 359 1432T373 1397Q373 1378 369 1371T362 1362V-326Q364 -332 366 -345T369 -369Q369 -397 311 -401L16 -426Q11 -426 3 -428T-8 -430Q-17 -430 -32 -407T-47 -367Q-47 -344 -40 -336T-8 -326L254 -301V1339L25 1319Q12 1317 -2 1317Q-20 1317 -30 1335T-41 1376Q-41 1398 -33 1409T-2 1421Z"/><glyph unicode="^" horiz-adv-x="987" d="M811 729L494 1178L174 721Q170 718 161 713T147 707Q121 707 94 715T66 735Q66 749 84 776L455 1296Q470 1317 494 1317Q517 1317 532 1296L901 784Q918 764 918 745Q918 734 891 723T842 711Q826 711 811 729Z"/><glyph unicode="_" horiz-adv-x="1145" d="M2 -188H1139Q1165 -188 1165 -238Q1165 -285 1139 -285H2Q-31 -285 -31 -229Q-31 -213 -22 -201T2 -188Z"/><glyph unicode="`" horiz-adv-x="496" d="M100 1292L385 1059Q401 1046 401 1030Q401 1020 384 1003T358 985Q345 985 324 1004L41 1219Q33 1225 27 1230T17 1240T14 1249Q14 1263 22 1278T35 1298Q51 1313 61 1313Q75 1313 100 1292Z"/><glyph unicode="a" horiz-adv-x="891" d="M612 162Q471 -25 297 -25Q198 -25 129 8T59 150Q59 213 92 270T186 372T327 439T500 463Q560 463 612 451V500Q612 618 590 687T487 756Q421 756 367 729T283 670Q262 651 233 651Q218 651 198 672T178 702Q178 721 183 729T209 748Q239 765 271 782T340 814T419 838T510 848Q639 848 678 751T717 500V162Q717 114 740 85T784 55Q809 55 816 49T823 23Q823 -9 812 -23T764 -37Q703 -37 658 17T612 162ZM612 315V356Q601 360 573 366T494 373Q406 373 330 342T211 261T168 154Q168 63 295 63Q401 63 482 144T612 315Z"/><glyph unicode="b" horiz-adv-x="985" d="M256 1382V537Q297 608 339 663T433 765T536 838T633 864Q877 864 877 575Q877 468 834 362T716 164T550 19T367 -35Q303 -35 256 0V-29Q256 -43 235 -51T188 -59Q150 -59 150 -25V1382Q150 1398 172 1407T219 1417Q256 1417 256 1382ZM256 354V162Q283 57 373 57Q463 57 555 137T706 339T766 571Q766 772 629 772Q557 772 481 698T343 523T256 354Z"/><glyph unicode="c" horiz-adv-x="750" d="M682 92Q682 85 682 84T670 70Q636 36 556 6T408 -25Q322 -25 252 14T140 136T98 342Q98 487 146 604T279 787T467 852Q561 852 618 807Q628 799 642 782T657 745Q654 724 638 708T600 692Q585 692 545 733Q507 760 463 760Q330 760 270 637T209 346Q209 199 270 134T412 68Q445 68 471 74T518 90T559 111T598 135Q607 141 611 144T619 149T635 150Q648 150 665 133T682 92Z"/><glyph unicode="d" horiz-adv-x="954" d="M805 1411V27Q805 -16 756 -16Q698 -16 698 14V307Q619 160 528 68T344 -25Q223 -25 162 50T100 264Q100 408 170 551T352 785T586 877Q646 877 698 840V1411Q698 1429 716 1438T754 1448Q805 1448 805 1411ZM696 494V680Q670 782 580 782Q510 782 445 737T326 613T242 445T211 268Q211 177 246 123T344 68Q416 68 489 145T617 324T696 494Z"/><glyph unicode="e" horiz-adv-x="780" d="M211 342V328Q211 188 275 127T434 66Q488 66 524 81T602 127Q610 132 616 135T631 139Q651 139 668 124T686 82Q686 66 670 55Q605 14 551 -5T430 -25Q283 -25 192 63T100 342Q100 438 130 530T211 694T332 809T473 852Q547 852 594 828T663 764T686 676Q686 573 603 498T406 384T211 342ZM578 668Q578 701 552 730T469 760Q407 760 354 711T266 588T217 432Q320 436 404 473T533 563T578 668Z"/><glyph unicode="f" horiz-adv-x="475" d="M178 813V1063Q178 1221 216 1318T383 1415Q473 1415 530 1393T651 1329Q666 1321 670 1314T674 1294Q674 1285 652 1259T616 1233Q603 1233 596 1235T584 1241T573 1251Q547 1277 498 1298T401 1319Q324 1319 305 1250T285 1063V834L469 854Q473 856 498 856Q532 856 532 817Q532 767 504 764L285 739V23Q285 10 268 0T225 -10Q208 -10 193 -1T178 20V721L80 707Q76 707 72 707T61 705Q29 705 29 756Q29 770 36 784T57 801L178 813Z"/><glyph unicode="g" horiz-adv-x="977" d="M713 506V672Q704 701 678 727T598 754Q508 754 417 675T267 475T209 242Q209 41 342 41Q446 41 545 189T713 506ZM842 -131Q842 -223 797 -318T668 -475T469 -537Q333 -537 227 -481T59 -342Q51 -332 51 -311Q51 -300 72 -278T104 -256Q119 -256 129 -266Q149 -288 179 -319T249 -377T341 -422T457 -440Q561 -440 623 -385T710 -254T735 -115Q735 -53 723 98T711 305Q526 -51 342 -51Q223 -51 162 18T100 238Q100 379 174 521T365 755T604 846Q664 846 713 819V831Q713 846 730 855T768 864Q790 864 804 853T819 825V379Q819 293 823 214T832 88T839 2T842 -131Z"/><glyph unicode="h" horiz-adv-x="979" d="M825 539V39Q825 6 772 6Q719 6 719 37V561Q719 661 681 717T575 774Q526 774 462 709T341 543T256 356V8Q256 -8 239 -18T201 -29Q183 -29 167 -20T150 4V1405Q150 1423 170 1437T209 1452Q256 1452 256 1421V547Q290 625 346 699T466 820T594 868Q649 868 701 839T789 736T825 539Z"/><glyph unicode="i" horiz-adv-x="412" d="M291 1305Q291 1274 269 1252T211 1229Q180 1229 157 1252T133 1305Q133 1336 156 1358T211 1380Q245 1380 268 1358T291 1305ZM258 840V35Q258 16 241 5T203 -6Q187 -6 170 3T152 23V819Q152 859 203 866Q258 866 258 840Z"/><glyph unicode="j" horiz-adv-x="410" d="M285 1305Q285 1273 262 1251T205 1229Q174 1229 151 1251T127 1305Q127 1335 150 1357T205 1380Q239 1380 262 1358T285 1305ZM258 827V-119Q258 -284 202 -410T23 -537Q-66 -537 -111 -494Q-123 -484 -123 -465Q-123 -452 -111 -430T-88 -408Q-74 -408 -61 -416Q-28 -442 16 -442Q152 -442 152 -147V823Q152 836 173 848T217 860Q258 860 258 827Z"/><glyph unicode="k" horiz-adv-x="860" d="M350 481L846 94Q860 84 860 66Q860 50 837 31T803 12Q789 12 772 23L272 414L256 397V25Q256 5 236 -4T193 -14Q150 -14 150 18V1399Q150 1416 169 1425T205 1434Q226 1434 241 1426T256 1405V518L631 848Q640 859 645 861T668 864Q693 864 708 848T723 813Q723 802 707 788L350 481Z"/><glyph unicode="l" horiz-adv-x="412" d="M260 1417V25Q260 5 240 -6T201 -18Q152 -18 152 14V1409Q152 1427 173 1438T215 1450Q260 1450 260 1417Z"/><glyph unicode="m" horiz-adv-x="1487" d="M795 584V569Q850 689 929 770T1116 852Q1205 852 1271 778T1337 528V37Q1337 2 1272 2Q1231 2 1231 35V551Q1231 651 1197 706T1098 762Q1039 762 983 704T880 559T795 373V25Q795 7 777 -2T737 -12Q688 -12 688 18V551Q688 762 561 762Q502 762 444 702T340 556T256 373V8Q256 -9 235 -19T188 -29Q150 -29 150 2V788Q150 809 172 822T215 836Q256 836 256 807V563Q315 687 396 769T580 852Q633 852 682 826T763 740T795 584Z"/><glyph unicode="n" horiz-adv-x="975" d="M256 803V539Q292 619 342 690T457 806T594 852Q685 852 755 778T825 528V37Q825 21 804 12T762 2Q719 2 719 35V551Q719 648 681 703T575 758Q515 758 452 693T338 530T256 338V6Q256 -10 239 -19T201 -29Q150 -29 150 -8V795Q150 814 172 825T217 836Q239 836 247 830T256 803Z"/><glyph unicode="o" horiz-adv-x="932" d="M827 440Q827 314 772 206T629 37T444 -25Q291 -25 195 81T98 381Q98 468 127 552T208 704T329 812T475 852Q579 852 660 804T784 663T827 440ZM719 440Q719 545 690 616T606 724T475 760Q404 760 343 707T245 566T209 385Q209 279 239 208T323 101T449 66Q518 66 580 116T680 252T719 440Z"/><glyph unicode="p" horiz-adv-x="967" d="M256 817V524Q308 614 366 687T488 804T614 848Q854 848 854 561Q854 456 813 345T701 145T544 3T367 -49Q309 -49 256 -14V-514Q256 -531 239 -540T203 -549Q184 -549 167 -539T150 -512V807Q150 823 167 835T207 848Q256 848 256 817ZM256 367V147Q284 43 373 43Q441 43 508 89T628 212T712 379T743 557Q743 754 608 754Q453 754 256 367Z"/><glyph unicode="q" horiz-adv-x="956" d="M698 813V825Q698 860 772 860Q807 860 807 825V-512Q807 -527 786 -537T741 -547Q720 -547 710 -542T700 -518V299Q625 149 531 49T344 -51Q234 -51 167 24T100 238Q100 381 170 523T352 755T586 846Q647 846 698 813ZM700 473V653Q691 688 663 720T580 752Q490 752 404 674T263 477T209 242Q209 151 246 97T344 43Q400 43 454 87T552 197T631 329T700 473Z"/><glyph unicode="r" horiz-adv-x="635" d="M256 829V633Q315 723 400 782T586 842Q629 842 629 768Q629 749 621 743T594 737Q521 737 453 699T332 595T256 455V25Q256 7 233 -4T188 -16Q150 -16 150 14V817Q150 837 170 848T215 860Q242 860 249 853T256 829Z"/><glyph unicode="s" horiz-adv-x="682" d="M299 520L436 446Q521 401 561 349T602 215Q602 98 517 36T299 -27Q244 -27 184 -8T78 37Q53 46 53 70Q53 89 66 112T98 135Q107 135 135 121Q237 61 309 61Q387 61 443 101T500 213Q500 262 470 294T379 358L244 432Q191 461 159 486T103 552T80 647Q80 716 123 760T227 825T332 846Q410 846 463 837T559 807Q576 801 580 795T584 770Q584 754 570 734T532 713Q528 713 494 726T420 748T334 758Q284 758 234 731T184 649Q184 615 205 590T254 547T299 520Z"/><glyph unicode="t" horiz-adv-x="608" d="M285 731V338V318Q285 208 306 138T401 68Q444 68 539 129Q552 137 567 137Q582 137 598 118T614 86Q614 62 588 45Q530 9 490 -9T387 -27Q309 -27 263 17T197 141T178 328V719L82 707Q72 705 61 705Q29 705 29 739Q29 799 55 801L178 813V1176Q178 1194 196 1205T242 1217Q285 1217 285 1186V827L467 846Q491 850 498 850Q532 850 532 815Q532 797 524 776T504 754L285 731Z"/><glyph unicode="u" horiz-adv-x="975" d="M721 510V819Q721 835 741 844T782 854Q827 854 827 823V33Q827 13 807 2T768 -10Q721 -10 721 18V303Q682 226 627 156T509 40T383 -6Q291 -6 222 67T152 315V791Q152 809 171 817T217 825Q258 825 258 793V295Q258 198 296 142T401 86Q452 86 518 149T639 310T721 510Z"/><glyph unicode="v" horiz-adv-x="776" d="M768 803Q768 791 765 784T758 772Q704 669 666 591T588 428T508 255T395 8Q379 -18 362 -18Q336 -18 328 12Q288 124 251 217T181 388T109 560T25 756Q18 770 18 782Q18 798 42 809T86 821Q99 821 104 817T117 797Q142 736 206 585T313 334T377 176Q401 235 440 324T512 485T567 604T664 811Q674 830 678 836T700 842Q718 842 743 829T768 803Z"/><glyph unicode="w" horiz-adv-x="1198" d="M346 215L535 745Q537 749 539 759T549 773T571 776Q639 776 639 741Q639 735 639 732T637 727Q719 522 840 190Q867 268 896 353T943 487T995 632T1063 811Q1073 844 1100 844Q1115 844 1140 831T1165 805Q1165 794 1157 778Q1011 422 874 10Q870 1 859 -8T840 -18Q813 -18 805 12Q778 78 736 190T681 335T629 476T582 602L375 14Q372 1 363 -8T342 -18Q331 -18 320 -7T305 16Q286 80 250 197T188 390T126 560T45 756Q39 770 39 782Q39 793 62 807T100 821Q117 821 122 818T135 797Q256 526 346 215Z"/><glyph unicode="x" horiz-adv-x="823" d="M461 430L756 49Q764 41 764 31Q764 17 742 2T698 -14Q675 -14 668 0L399 348L133 0Q127 -16 100 -16Q90 -16 65 -3T39 23Q39 36 45 45L336 426L61 778Q55 787 55 803Q55 812 79 830T117 848Q135 848 147 831L397 508L645 834Q651 850 678 850Q698 850 719 836T741 811Q741 803 733 791L461 430Z"/><glyph unicode="y" horiz-adv-x="793" d="M784 797Q784 783 772 766Q731 718 689 647T591 451T455 131Q411 21 354 -135T259 -371T173 -497T55 -543Q-18 -543 -90 -508Q-99 -503 -104 -500T-110 -493T-111 -471Q-111 -455 -94 -432T-61 -408Q-48 -408 -6 -425T51 -442Q94 -442 133 -394T204 -275T258 -134T317 45Q296 140 270 237T219 411T160 574T84 754Q78 768 78 780Q78 792 102 806T139 821Q158 821 164 820T173 814T180 797Q235 671 273 563T337 365T381 203Q411 295 480 446T598 684Q642 761 657 784T705 834Q710 838 714 841T724 845T735 846Q751 846 767 829T784 797Z"/><glyph unicode="z" horiz-adv-x="844" d="M186 74L768 106Q780 106 787 85T795 43Q795 24 786 19T752 12L45 -20Q37 -20 29 -11T20 6Q20 16 35 35L621 748L143 719Q131 719 120 719T96 717Q74 717 74 774Q74 805 117 809L752 842Q766 842 774 833T782 813Q782 801 764 778L186 74Z"/><glyph unicode="{" horiz-adv-x="504" d="M186 1190Q186 1262 215 1305T294 1366T403 1384Q459 1384 459 1348Q459 1320 447 1298T406 1276Q362 1276 337 1267T301 1228T289 1137Q289 1097 298 909T307 639Q307 594 297 564T275 519T251 494T233 481Q309 434 309 362Q309 327 301 124T293 -139Q293 -338 426 -338Q473 -338 482 -345T492 -379Q492 -417 475 -428T408 -440Q344 -440 271 -392T197 -188Q197 -54 200 40T206 198T209 305Q209 360 171 396T102 442Q70 453 70 498Q70 540 106 549Q125 551 148 554T189 576T207 639Q207 700 197 904T186 1190Z"/><glyph unicode="|" horiz-adv-x="682" d="M403 1356V-393Q403 -413 383 -424T344 -436Q295 -436 295 -403V1348Q295 1365 316 1377T358 1389Q403 1389 403 1356Z"/><glyph unicode="}" horiz-adv-x="504" d="M297 639Q297 594 315 576T356 555T397 549Q434 540 434 498Q434 453 401 442Q370 433 333 397T295 305Q295 263 298 199T304 40T307 -188Q307 -344 234 -392T96 -440Q48 -440 30 -429T12 -379Q12 -354 22 -346T78 -338Q211 -338 211 -139Q211 -79 203 124T195 362Q195 389 203 409T225 445T252 469T270 481Q267 484 247 500T212 549T197 639Q197 679 206 867T215 1137Q215 1198 204 1227T167 1266T98 1276Q69 1276 57 1299T45 1348Q45 1384 100 1384Q197 1384 257 1340T317 1190Q317 1131 313 1035T306 869T300 740T297 639Z"/><glyph unicode="~" horiz-adv-x="987" d="M274 616Q164 616 156 547Q153 524 140 516T96 508Q71 508 64 519T57 559Q57 596 81 633T152 694T266 719Q312 719 481 682Q645 645 678 645Q761 645 786 668T821 725Q825 740 827 749T837 764T864 770Q934 770 934 735Q934 696 907 651T824 575T690 543Q631 543 471 580Q307 616 274 616Z"/><glyph unicode=" " horiz-adv-x="639"/><glyph unicode="¡" horiz-adv-x="434" d="M162 -299V575Q162 621 213 621Q270 621 270 590V-305Q270 -346 217 -346Q162 -346 162 -299ZM291 885Q291 860 269 830T217 799Q143 799 143 885Q143 907 167 939T217 971Q251 971 271 949T291 885Z"/><glyph unicode="¢" horiz-adv-x="750" d="M461 1276V582Q496 588 522 601T598 645Q602 647 609 651T620 656T635 657Q649 657 665 642T682 600Q682 592 679 589T670 578Q644 550 584 524T461 485V375Q461 348 449 339T410 330Q389 330 382 336T375 360V483Q256 499 177 592T98 852Q98 975 133 1078T231 1252T375 1352V1450Q375 1463 390 1472T428 1481Q461 1481 461 1452V1368Q512 1368 552 1356T618 1323Q628 1317 642 1302T657 1270Q654 1248 634 1229T592 1210Q584 1210 572 1221T545 1247Q532 1260 507 1268T461 1276ZM375 580V1253Q292 1209 251 1097T209 856Q209 729 258 662T375 580Z"/><glyph unicode="£" horiz-adv-x="1006" d="M571 698L365 676Q358 624 340 508T300 270T260 88Q298 94 390 106T584 128T731 139Q831 139 930 84Q950 73 954 67T958 39Q958 18 938 -1T901 -20Q879 -20 855 -8T812 15T770 34T717 43Q580 43 385 12Q310 2 249 -8T174 -18Q151 -18 137 -3T123 31Q123 47 128 56T138 68T158 78Q174 137 188 218T218 408T242 573T252 655L147 641Q143 641 139 641T129 639Q112 639 104 659T96 702Q96 729 125 735L266 752L311 1067Q335 1224 383 1321T535 1419Q624 1419 665 1401T786 1333Q809 1320 809 1296Q809 1275 785 1255T743 1235Q727 1235 707 1255Q682 1281 632 1302T535 1323Q487 1323 461 1252T420 1071L377 774L557 793Q561 795 586 795Q601 795 611 773T621 727Q621 702 571 698Z"/><glyph unicode="¤" horiz-adv-x="797" d="M588 580Q588 655 534 709T403 764Q328 764 274 710T219 580Q219 502 274 449T406 395Q482 395 535 449T588 580ZM573 788Q587 801 615 831T651 862Q671 862 690 845T709 809Q709 800 698 786T668 752T635 717Q674 654 674 580Q674 508 635 438Q707 364 707 348Q707 331 688 313T649 295Q643 295 632 305T604 334T573 369Q500 309 406 309Q320 309 242 362Q216 334 204 320T181 297T164 287Q144 287 125 304T106 340Q106 352 121 369T178 430Q133 499 133 580Q133 660 178 729Q109 805 109 817Q109 835 127 852T166 870Q172 870 182 861T212 829T242 797Q320 850 403 850Q501 850 573 788Z"/><glyph unicode="¥" horiz-adv-x="1118" d="M829 242L602 213V29Q602 9 582 -7T541 -23Q489 -23 489 10V199L289 172Q285 172 281 172T270 170Q238 170 238 221Q238 260 266 266L489 295V436L287 410Q282 410 278 410T268 408Q236 408 236 459Q236 473 243 487T264 504L489 532V618L-43 1327Q-46 1332 -48 1336T-52 1344T-53 1362Q-53 1371 -29 1391T8 1411Q28 1411 30 1410T41 1395L555 705L1085 1386Q1105 1411 1107 1413T1126 1415Q1139 1415 1163 1396T1188 1364Q1188 1345 1178 1331L602 604V547L793 569Q797 571 821 571Q856 571 856 532Q856 482 827 479L602 451V307Q602 308 674 317T795 332Q799 334 823 334Q858 334 858 295Q858 245 829 242Z"/><glyph unicode="¦" horiz-adv-x="682" d="M403 1356V723Q403 703 380 693T334 682Q295 682 295 715V1354Q295 1371 318 1380T362 1389Q403 1389 403 1356ZM403 244V-387Q403 -407 383 -418T344 -430Q295 -430 295 -397V236Q295 253 316 264T358 276Q403 276 403 244Z"/><glyph unicode="§" horiz-adv-x="1063" d="M477 352L616 289Q724 238 782 199Q838 278 838 362Q838 467 777 523T592 637L449 702Q413 719 381 738T317 778Q287 761 264 714T240 610Q240 514 301 460T477 352ZM926 -86Q926 -226 865 -314T714 -440T537 -479Q421 -479 341 -453T164 -367Q144 -354 141 -348T137 -324Q137 -307 158 -284T195 -260Q204 -260 219 -270T248 -291Q325 -343 389 -365T537 -387Q624 -387 721 -314T819 -92Q819 13 759 69T573 182L430 248Q352 286 310 312T225 382T157 482T133 610Q133 764 233 850Q152 938 152 1065Q152 1199 222 1275T384 1379T559 1407Q636 1407 699 1391T860 1335Q903 1320 903 1294Q903 1280 885 1257T848 1233Q838 1233 825 1238T793 1251Q708 1287 662 1301T559 1315Q504 1315 434 1296T311 1220T258 1065Q258 999 291 950T375 870T496 807L635 743Q741 695 805 652T906 541T944 369Q944 217 866 119Q926 36 926 -86Z"/><glyph unicode="¨" horiz-adv-x="496" d="M158 1116Q158 1091 136 1061T84 1030Q10 1030 10 1116Q10 1138 34 1170T84 1202Q118 1202 138 1181T158 1116ZM485 1116Q485 1090 464 1060T412 1030Q338 1030 338 1116Q338 1138 362 1170T412 1202Q446 1202 465 1181T485 1116Z"/><glyph unicode="©" horiz-adv-x="1493" d="M1391 635Q1391 483 1345 360T1211 151T993 21T705 -25Q568 -25 458 17T269 140T148 337T106 600Q106 789 182 943T405 1184T752 1272Q906 1272 1026 1227T1227 1098T1349 896T1391 635ZM1303 635Q1303 765 1269 868T1166 1044T993 1157T752 1196Q575 1196 450 1120T260 910T195 608Q195 433 256 308T433 117T711 51Q854 51 966 90T1151 204T1264 388T1303 635ZM1051 289Q1051 251 1030 244Q1002 234 970 224T897 207T807 201Q684 201 580 251T414 398T352 623Q352 740 404 835T556 984T788 1038Q872 1038 924 1026T1022 991Q1055 982 1055 948Q1055 932 1042 912T1008 891Q1000 891 988 896T961 905Q913 927 881 934T788 942Q687 942 612 902T498 790T459 623Q459 526 507 451T637 335T807 295Q855 295 884 300T967 328Q992 342 1010 342Q1032 342 1041 326T1051 289Z"/><glyph unicode="ª" horiz-adv-x="682" d="M381 1174Q398 1174 428 1169V1176Q428 1226 418 1267T375 1309Q342 1309 306 1295T258 1268Q247 1257 242 1255T221 1253Q206 1253 187 1266T168 1288Q168 1304 172 1312T197 1331Q256 1359 296 1374T387 1389Q474 1389 503 1330T532 1176V987Q532 934 563 934Q596 934 596 907Q596 858 541 858Q484 858 460 892T430 948Q386 906 348 883T260 860Q96 860 96 979Q96 1032 133 1076T235 1147T381 1174ZM428 1073V1098Q420 1099 412 1099T377 1100Q305 1100 254 1064T203 975Q203 942 258 942Q316 942 361 983T428 1073Z"/><glyph unicode="«" horiz-adv-x="842" d="M717 655L518 455Q518 455 592 380T717 254Q735 232 735 219Q735 210 719 193T690 176Q675 176 662 193L428 416Q408 441 408 455Q408 468 428 494L662 717Q675 733 690 733Q703 733 719 716T735 690Q735 678 717 655ZM373 655L174 455Q174 455 248 380T373 254Q391 232 391 219Q391 209 375 193T346 176Q331 176 317 193L84 416Q63 442 63 455Q63 466 84 494L317 717Q332 733 346 733Q358 733 374 717T391 690Q391 678 373 655Z"/><glyph unicode="¬" horiz-adv-x="987" d="M848 666H870Q905 666 905 610Q905 598 903 589T899 575V209Q899 176 846 168Q824 168 809 176T793 195V565L72 508Q57 508 47 526T37 563Q37 602 68 606L848 666Z"/><glyph unicode="­" horiz-adv-x="639" d="M84 541L537 578Q543 579 548 579T563 580Q574 580 581 565T588 530Q588 482 549 479L98 442Q92 442 87 442T76 440Q49 440 49 494Q49 538 84 541Z"/><glyph unicode="®" horiz-adv-x="1493" d="M1391 635Q1391 483 1345 360T1211 151T993 21T705 -25Q568 -25 458 17T269 140T148 337T106 600Q106 789 182 943T405 1184T752 1272Q906 1272 1026 1227T1227 1098T1349 896T1391 635ZM1303 635Q1303 765 1269 868T1166 1044T993 1157T752 1196Q575 1196 450 1120T260 910T195 608Q195 433 256 308T433 117T711 51Q854 51 966 90T1151 204T1264 388T1303 635ZM633 965V664H649Q704 664 764 682T865 738T907 827Q907 907 844 936T719 965H633ZM995 254L633 582V268Q633 251 614 236T575 221Q544 221 535 230T526 262V965Q506 988 506 1001Q506 1024 514 1032T545 1044Q603 1051 631 1054T715 1057Q825 1057 920 1006T1016 827Q1016 764 976 714T874 632T762 596L1085 309Q1094 302 1099 298T1106 290T1108 274Q1108 266 1080 248T1036 229Q1025 229 1015 237T995 254Z"/><glyph unicode="¯" horiz-adv-x="1145" d="M2 1537H1139Q1165 1537 1165 1487Q1165 1440 1139 1440H2Q-31 1440 -31 1496Q-31 1512 -22 1524T2 1537Z"/><glyph unicode="°" horiz-adv-x="786" d="M203 1051Q203 967 249 923T354 879Q447 879 505 931T563 1104Q563 1169 536 1210T469 1268T397 1286Q350 1286 305 1262T232 1184T203 1051ZM412 1380Q477 1380 538 1345T638 1246T676 1102Q676 959 594 868T356 776Q233 776 165 860T96 1057Q96 1183 169 1281T412 1380Z"/><glyph unicode="±" horiz-adv-x="987" d="M520 748L913 782Q937 782 946 769T956 711Q956 701 947 692T928 682L520 647V281Q520 248 467 240Q443 240 429 248T414 266V637L72 610Q57 610 47 628T37 666Q37 683 46 696T68 709L414 739V1071Q414 1091 435 1104T477 1118Q520 1118 520 1090V748ZM68 145L913 215Q929 215 936 209T948 188Q956 169 956 147Q956 137 946 128T928 119L72 49Q57 49 47 67T37 104Q37 141 68 145Z"/><glyph unicode="²" horiz-adv-x="682" d="M213 756L520 768Q526 769 530 769T541 770Q567 770 567 719Q567 688 524 688L125 676Q98 676 98 719Q98 733 109 745Q118 759 254 883Q338 960 397 1031T457 1182Q457 1235 418 1270T326 1305Q269 1305 201 1284Q200 1284 195 1282T184 1280Q170 1280 159 1298T147 1331Q147 1354 164 1360Q244 1382 328 1382Q423 1382 489 1328T555 1186Q555 1047 309 838L213 756Z"/><glyph unicode="³" horiz-adv-x="682" d="M250 997Q211 997 211 1044Q211 1079 246 1079H281Q309 1079 344 1090T405 1127T430 1194Q430 1246 387 1275T295 1305Q251 1305 204 1291T162 1276Q150 1276 136 1290T121 1321Q121 1338 124 1343T147 1358Q197 1382 299 1382Q356 1382 409 1361T495 1297T528 1196Q528 1145 483 1100T393 1040Q420 1038 455 1015T515 955T539 872Q539 794 495 748T394 684T291 666Q229 666 154 680Q134 685 130 689T125 711Q125 724 137 744T164 764Q176 764 188 758Q199 757 209 754T230 748T258 743T291 741Q334 741 387 772T440 870Q440 935 390 968T283 1001Q274 1001 264 999T250 997Z"/><glyph unicode="´" horiz-adv-x="496" d="M111 1059L395 1292Q421 1313 434 1313Q445 1313 461 1298Q466 1293 473 1277T481 1249Q481 1241 455 1219L172 1004Q151 985 137 985Q128 985 111 1002T94 1030Q94 1046 111 1059Z"/><glyph unicode="µ" horiz-adv-x="975" d="M721 12V322Q649 190 560 92T383 -6Q349 -6 310 7T244 47Q241 11 237 -44T223 -205T205 -367Q200 -403 147 -403Q128 -403 115 -392T102 -365Q102 -358 106 -330Q118 -235 129 -94T146 170T152 334V791Q152 825 199 825Q222 825 240 817T258 793V295Q258 198 296 142T401 86Q451 86 515 153T637 319T723 504V819Q723 835 740 844T776 854Q797 854 812 846T827 823V33Q827 13 807 2T768 -10Q721 -10 721 12Z"/><glyph unicode="¶" horiz-adv-x="1174" d="M967 1376V242Q967 62 900 -58T730 -234T518 -291Q455 -291 390 -271T293 -219Q285 -211 285 -195Q285 -185 303 -164T332 -143Q345 -143 385 -163T452 -193T520 -203Q608 -203 684 -155T808 -11T856 217V424Q819 418 719 418Q615 418 490 462T273 604T182 850Q182 1045 305 1155T579 1305T856 1352V1366Q856 1401 940 1401Q951 1401 959 1394T967 1376ZM856 518V1257Q774 1253 686 1221T529 1100T461 854Q461 738 507 660T618 545T739 508Q788 508 856 518Z"/><glyph unicode="·" horiz-adv-x="307" d="M231 657Q231 632 209 602T158 571Q84 571 84 657Q84 679 108 711T158 743Q192 743 211 722T231 657Z"/><glyph unicode="¸" horiz-adv-x="496" d="M258 -10L340 -4Q336 -15 331 -32T322 -67T319 -98Q319 -121 330 -127T377 -147Q403 -154 418 -168T434 -217Q434 -279 385 -318T268 -358Q217 -358 184 -343T150 -305Q150 -296 164 -277T186 -258Q193 -258 207 -265T235 -276T264 -281Q295 -281 314 -267T334 -231Q334 -212 320 -202T280 -184T242 -166T229 -139Q229 -102 258 -10Z"/><glyph unicode="¹" horiz-adv-x="682" d="M391 1354V725Q391 705 374 695T338 684Q313 684 305 688T297 713V1241L219 1155Q216 1153 208 1149T193 1145Q183 1145 170 1166T156 1198Q156 1209 174 1227L326 1368Q342 1384 371 1384Q391 1384 391 1354Z"/><glyph unicode="º" horiz-adv-x="682" d="M578 1133Q578 1059 543 995T450 893T328 856Q230 856 165 920T100 1102Q100 1173 133 1237T224 1342T346 1382Q455 1382 516 1317T578 1133ZM473 1137Q473 1229 442 1264T346 1300Q286 1300 247 1242T207 1100Q207 936 330 936Q390 936 431 991T473 1137Z"/><glyph unicode="»" horiz-adv-x="842" d="M524 717L758 494Q778 468 778 455Q778 441 758 416L524 193Q511 176 496 176Q483 176 467 193T451 219Q451 232 469 254Q519 304 593 379T668 455L469 655Q451 678 451 690Q451 699 467 716T496 733Q511 733 524 717ZM180 717L414 494Q434 468 434 455Q434 441 414 416L180 193Q167 176 152 176Q139 176 123 192T106 219Q106 231 125 254Q175 304 249 379T324 455L125 655Q106 680 106 690Q106 700 122 716T152 733Q167 733 180 717Z"/><glyph unicode="¼" horiz-adv-x="1331" d="M1133 291H1206Q1221 291 1226 271T1231 229Q1231 205 1194 205H1133V12Q1133 -23 1065 -23Q1036 -23 1036 12V199L754 186Q733 186 733 217Q733 228 741 240L1061 676Q1077 696 1110 696Q1133 696 1133 668V291ZM872 274L1036 283V504L872 274ZM391 1354V725Q391 705 374 695T338 684Q313 684 305 688T297 713V1241L219 1155Q216 1153 208 1149T193 1145Q183 1145 170 1166T156 1198Q156 1209 174 1227L326 1368Q342 1384 371 1384Q391 1384 391 1354ZM338 33L932 1413Q937 1431 944 1437T965 1444Q989 1444 1006 1428T1024 1393Q1024 1380 1020 1374L430 8Q422 -25 395 -25Q381 -25 358 -9T334 16Q334 27 338 33Z"/><glyph unicode="½" horiz-adv-x="1331" d="M391 1354V725Q391 705 374 695T338 684Q313 684 305 688T297 713V1241L219 1155Q216 1153 208 1149T193 1145Q183 1145 170 1166T156 1198Q156 1209 174 1227L326 1368Q342 1384 371 1384Q391 1384 391 1354ZM338 33L932 1413Q937 1431 944 1437T965 1444Q989 1444 1006 1428T1024 1393Q1024 1380 1020 1374L430 8Q422 -25 395 -25Q381 -25 358 -9T334 16Q334 27 338 33ZM883 68L1190 80Q1196 81 1200 81T1210 82Q1237 82 1237 29Q1237 0 1194 0L795 -12Q768 -12 768 31Q768 45 778 57Q786 68 924 195Q1008 272 1067 344T1126 494Q1126 546 1087 581T995 616Q934 616 870 596Q868 596 863 594T854 592Q838 592 828 610T817 643Q817 667 834 672Q911 694 997 694Q1057 694 1109 670T1193 600T1225 498Q1225 438 1187 375T1097 260T979 150L883 68Z"/><glyph unicode="¾" horiz-adv-x="1331" d="M1133 291H1206Q1221 291 1226 271T1231 229Q1231 205 1194 205H1133V12Q1133 -23 1065 -23Q1036 -23 1036 12V199L754 186Q733 186 733 217Q733 228 741 240L1061 676Q1077 696 1110 696Q1133 696 1133 668V291ZM872 274L1036 283V506L872 274ZM338 33L932 1413Q937 1431 944 1437T965 1444Q989 1444 1006 1428T1024 1393Q1024 1380 1020 1374L430 8Q422 -25 395 -25Q381 -25 358 -9T334 16Q334 27 338 33ZM250 997Q211 997 211 1044Q211 1079 246 1079H281Q309 1079 344 1090T405 1127T430 1194Q430 1246 387 1275T295 1305Q251 1305 204 1291T162 1276Q150 1276 136 1290T121 1321Q121 1338 124 1343T147 1358Q197 1382 299 1382Q356 1382 409 1361T495 1297T528 1196Q528 1145 483 1100T393 1040Q420 1038 455 1015T515 955T539 872Q539 794 495 748T394 684T291 666Q229 666 154 680Q134 685 130 689T125 711Q125 724 137 744T164 764Q176 764 188 758Q199 757 209 754T230 748T258 743T291 741Q334 741 387 772T440 870Q440 935 390 968T283 1001Q274 1001 264 999T250 997Z"/><glyph unicode="¿" horiz-adv-x="870" d="M160 -127Q160 -43 200 19T292 122T434 221Q470 244 496 261T542 297T573 340T584 399Q584 455 553 481T489 508Q436 508 401 488T326 426Q316 416 306 407T287 397Q271 397 244 415T217 446Q217 465 227 475Q286 541 343 572T492 604Q530 604 577 585T659 519T694 401Q694 351 678 313T633 247T578 202T487 143Q408 90 371 61T304 -16T274 -127Q274 -228 350 -271T496 -315Q553 -315 597 -304T690 -264Q711 -250 725 -250Q738 -250 755 -274T772 -313Q772 -335 768 -339T750 -348Q692 -374 659 -386T586 -406T500 -414Q437 -414 360 -392T221 -305T160 -127ZM555 889Q555 864 533 834T481 803Q450 803 429 824T408 889Q408 911 431 943T481 975Q515 975 535 953T555 889Z"/><glyph unicode="À" horiz-adv-x="1284" d="M657 1397L1307 66Q1319 44 1319 37Q1319 24 1292 12T1251 0Q1213 0 1204 23L915 610L346 582L84 2Q77 -11 71 -14T45 -18Q24 -18 5 1T-14 35Q-14 48 -4 66L236 584Q218 592 209 610T199 645Q199 675 231 678L279 682L596 1380Q599 1392 610 1403T629 1415Q648 1415 657 1397ZM387 682L872 707L629 1219L387 682ZM496 1847L781 1614Q797 1601 797 1585Q797 1575 780 1558T754 1540Q741 1540 720 1559L437 1774Q429 1780 423 1785T413 1795T410 1804Q410 1818 418 1833T431 1853Q447 1868 457 1868Q471 1868 496 1847Z"/><glyph unicode="Á" horiz-adv-x="1284" d="M657 1397L1307 66Q1319 44 1319 37Q1319 24 1292 12T1251 0Q1213 0 1204 23L915 610L346 582L84 2Q77 -11 71 -14T45 -18Q24 -18 5 1T-14 35Q-14 48 -4 66L236 584Q218 592 209 610T199 645Q199 675 231 678L279 682L596 1380Q599 1392 610 1403T629 1415Q648 1415 657 1397ZM387 682L872 707L629 1219L387 682ZM507 1614L791 1847Q817 1868 830 1868Q841 1868 857 1853Q862 1848 869 1832T877 1804Q877 1796 851 1774L568 1559Q547 1540 533 1540Q524 1540 507 1557T490 1585Q490 1601 507 1614Z"/><glyph unicode="Â" horiz-adv-x="1284" d="M657 1397L1307 66Q1319 44 1319 37Q1319 24 1292 12T1251 0Q1213 0 1204 23L915 610L346 582L84 2Q77 -11 71 -14T45 -18Q24 -18 5 1T-14 35Q-14 48 -4 66L236 584Q218 592 209 610T199 645Q199 675 231 678L279 682L596 1380Q599 1392 610 1403T629 1415Q648 1415 657 1397ZM387 682L872 707L629 1219L387 682ZM845 1563L644 1761Q642 1761 568 1687T443 1563Q422 1544 408 1544Q399 1544 382 1561T365 1589Q365 1605 382 1618L605 1851Q630 1872 644 1872Q657 1872 683 1851L906 1618Q922 1605 922 1589Q922 1579 905 1562T879 1544Q866 1544 845 1563Z"/><glyph unicode="Ã" horiz-adv-x="1284" d="M657 1397L1307 66Q1319 44 1319 37Q1319 24 1292 12T1251 0Q1213 0 1204 23L915 610L346 582L84 2Q77 -11 71 -14T45 -18Q24 -18 5 1T-14 35Q-14 48 -4 66L236 584Q218 592 209 610T199 645Q199 675 231 678L279 682L596 1380Q599 1392 610 1403T629 1415Q648 1415 657 1397ZM387 682L872 707L629 1219L387 682ZM540 1659Q503 1659 492 1639T473 1587Q470 1575 465 1571T440 1567Q422 1567 411 1581T399 1614Q399 1667 443 1710T532 1753Q563 1753 631 1716Q701 1679 721 1679Q771 1679 785 1705T807 1772Q810 1792 816 1799T837 1806Q887 1806 887 1774Q887 1712 841 1649T729 1585Q700 1585 630 1622T540 1659Z"/><glyph unicode="Ä" horiz-adv-x="1284" d="M657 1397L1307 66Q1319 44 1319 37Q1319 24 1292 12T1251 0Q1213 0 1204 23L915 610L346 582L84 2Q77 -11 71 -14T45 -18Q24 -18 5 1T-14 35Q-14 48 -4 66L236 584Q218 592 209 610T199 645Q199 675 231 678L279 682L596 1380Q599 1392 610 1403T629 1415Q648 1415 657 1397ZM387 682L872 707L629 1219L387 682ZM554 1671Q554 1646 532 1616T480 1585Q406 1585 406 1671Q406 1693 430 1725T480 1757Q514 1757 534 1736T554 1671ZM881 1671Q881 1645 860 1615T808 1585Q734 1585 734 1671Q734 1693 758 1725T808 1757Q842 1757 861 1736T881 1671Z"/><glyph unicode="Å" horiz-adv-x="1284" d="M657 1397L1307 66Q1319 44 1319 37Q1319 24 1292 12T1251 0Q1213 0 1204 23L915 610L346 582L84 2Q77 -11 71 -14T45 -18Q24 -18 5 1T-14 35Q-14 48 -4 66L236 584Q218 592 209 610T199 645Q199 675 231 678L279 682L596 1380Q599 1392 610 1403T629 1415Q648 1415 657 1397ZM387 682L872 707L629 1219L387 682ZM565 1722Q565 1689 585 1670T628 1651Q662 1651 688 1677T714 1749Q714 1784 690 1803T645 1823Q616 1823 591 1796T565 1722ZM669 1913Q706 1913 737 1889T788 1827T807 1753Q807 1719 784 1675T717 1599T614 1567Q545 1567 511 1605T477 1700Q477 1774 526 1843T669 1913Z"/><glyph unicode="Æ" horiz-adv-x="1718" d="M829 1290L469 672Q559 679 699 689T854 700V1290H829ZM854 61V602L408 569L76 14Q69 1 63 -2T37 -6Q16 -6 0 15T-16 57Q-15 67 -4 88L752 1356Q765 1376 782 1376L1442 1415Q1458 1416 1477 1419T1511 1423Q1530 1423 1540 1403T1550 1356Q1550 1334 1543 1328T1513 1319L965 1286V776L1503 817Q1510 818 1515 818T1530 819Q1556 819 1556 760Q1556 724 1526 721L965 674V88L1540 143Q1545 143 1557 145T1577 147Q1589 147 1597 124T1606 76Q1606 42 1563 39L942 -12Q902 -16 887 -16Q870 -16 857 -6T844 20Q844 26 848 40T854 61Z"/><glyph unicode="Ç" horiz-adv-x="1384" d="M885 -25H879Q864 -68 864 -98Q864 -121 875 -127T922 -147Q979 -165 979 -217Q979 -279 930 -318T813 -358Q761 -358 728 -343T694 -305Q694 -295 708 -277T731 -258Q738 -258 752 -265T780 -276T809 -281Q840 -281 859 -267T879 -231Q879 -212 865 -202T825 -184T787 -166T774 -139Q774 -97 799 -20Q618 0 460 93T205 344T109 698Q109 844 163 973T318 1200T555 1353T852 1407Q947 1407 1013 1397T1121 1373T1233 1329Q1272 1313 1272 1284Q1272 1264 1255 1243T1219 1221Q1200 1221 1153 1241Q1056 1282 1006 1295T852 1309Q719 1309 601 1262T398 1132T266 936T219 698Q219 563 276 447T430 247T646 119T885 74Q974 74 1026 85T1163 133Q1211 156 1221 156Q1245 156 1261 137T1278 96Q1278 71 1271 64T1241 47Q1195 26 1146 10T1032 -16T885 -25Z"/><glyph unicode="È" horiz-adv-x="1083" d="M334 88L909 143Q917 144 923 144T940 145Q954 145 964 124T975 78Q975 42 932 39L311 -12Q271 -16 256 -16Q239 -16 226 -6T213 20Q213 27 217 41T223 61V1290Q216 1298 206 1314T195 1348Q195 1377 231 1380L811 1417Q831 1419 840 1420T857 1422T877 1423Q891 1423 901 1413T919 1389T926 1358Q926 1332 917 1327T883 1319L334 1286V776L872 817Q879 818 884 818T897 819Q917 819 927 797T938 748Q938 730 930 727T895 721L334 674V88ZM395 1847L680 1614Q696 1601 696 1585Q696 1575 679 1558T653 1540Q640 1540 619 1559L336 1774Q328 1780 322 1785T312 1795T309 1804Q309 1818 317 1833T330 1853Q346 1868 356 1868Q370 1868 395 1847Z"/><glyph unicode="É" horiz-adv-x="1083" d="M334 88L909 143Q917 144 923 144T940 145Q954 145 964 124T975 78Q975 42 932 39L311 -12Q271 -16 256 -16Q239 -16 226 -6T213 20Q213 27 217 41T223 61V1290Q216 1298 206 1314T195 1348Q195 1377 231 1380L811 1417Q831 1419 840 1420T857 1422T877 1423Q891 1423 901 1413T919 1389T926 1358Q926 1332 917 1327T883 1319L334 1286V776L872 817Q879 818 884 818T897 819Q917 819 927 797T938 748Q938 730 930 727T895 721L334 674V88ZM406 1614L690 1847Q716 1868 729 1868Q740 1868 756 1853Q761 1848 768 1832T776 1804Q776 1796 750 1774L467 1559Q446 1540 432 1540Q423 1540 406 1557T389 1585Q389 1601 406 1614Z"/><glyph unicode="Ê" horiz-adv-x="1083" d="M334 88L909 143Q917 144 923 144T940 145Q954 145 964 124T975 78Q975 42 932 39L311 -12Q271 -16 256 -16Q239 -16 226 -6T213 20Q213 27 217 41T223 61V1290Q216 1298 206 1314T195 1348Q195 1377 231 1380L811 1417Q831 1419 840 1420T857 1422T877 1423Q891 1423 901 1413T919 1389T926 1358Q926 1332 917 1327T883 1319L334 1286V776L872 817Q879 818 884 818T897 819Q917 819 927 797T938 748Q938 730 930 727T895 721L334 674V88ZM744 1563L543 1761Q541 1761 467 1687T342 1563Q321 1544 307 1544Q298 1544 281 1561T264 1589Q264 1605 281 1618L504 1851Q529 1872 543 1872Q556 1872 582 1851L805 1618Q821 1605 821 1589Q821 1579 804 1562T778 1544Q765 1544 744 1563Z"/><glyph unicode="Ë" horiz-adv-x="1083" d="M334 88L909 143Q917 144 923 144T940 145Q954 145 964 124T975 78Q975 42 932 39L311 -12Q271 -16 256 -16Q239 -16 226 -6T213 20Q213 27 217 41T223 61V1290Q216 1298 206 1314T195 1348Q195 1377 231 1380L811 1417Q831 1419 840 1420T857 1422T877 1423Q891 1423 901 1413T919 1389T926 1358Q926 1332 917 1327T883 1319L334 1286V776L872 817Q879 818 884 818T897 819Q917 819 927 797T938 748Q938 730 930 727T895 721L334 674V88ZM453 1671Q453 1646 431 1616T379 1585Q305 1585 305 1671Q305 1693 329 1725T379 1757Q413 1757 433 1736T453 1671ZM780 1671Q780 1645 759 1615T707 1585Q633 1585 633 1671Q633 1693 657 1725T707 1757Q741 1757 760 1736T780 1671Z"/><glyph unicode="Ì" horiz-adv-x="590" d="M238 29V1354Q238 1395 303 1395Q348 1395 348 1348V41Q348 -4 283 -4Q238 -4 238 29ZM148 1847L433 1614Q449 1601 449 1585Q449 1575 432 1558T406 1540Q393 1540 372 1559L89 1774Q81 1780 75 1785T65 1795T62 1804Q62 1818 70 1833T83 1853Q99 1868 109 1868Q123 1868 148 1847Z"/><glyph unicode="Í" horiz-adv-x="590" d="M238 29V1354Q238 1395 303 1395Q348 1395 348 1348V41Q348 -4 283 -4Q238 -4 238 29ZM158 1614L442 1847Q468 1868 481 1868Q492 1868 508 1853Q513 1848 520 1832T528 1804Q528 1796 502 1774L219 1559Q198 1540 184 1540Q175 1540 158 1557T141 1585Q141 1601 158 1614Z"/><glyph unicode="Î" horiz-adv-x="590" d="M238 29V1354Q238 1395 303 1395Q348 1395 348 1348V41Q348 -4 283 -4Q238 -4 238 29ZM496 1563L295 1761Q293 1761 219 1687T94 1563Q73 1544 59 1544Q50 1544 33 1561T16 1589Q16 1605 33 1618L256 1851Q281 1872 295 1872Q308 1872 334 1851L557 1618Q573 1605 573 1589Q573 1579 556 1562T530 1544Q517 1544 496 1563Z"/><glyph unicode="Ï" horiz-adv-x="590" d="M238 29V1354Q238 1395 303 1395Q348 1395 348 1348V41Q348 -4 283 -4Q238 -4 238 29ZM205 1671Q205 1646 183 1616T131 1585Q57 1585 57 1671Q57 1693 81 1725T131 1757Q165 1757 185 1736T205 1671ZM532 1671Q532 1645 511 1615T459 1585Q385 1585 385 1671Q385 1693 409 1725T459 1757Q493 1757 512 1736T532 1671Z"/><glyph unicode="Ð" horiz-adv-x="1608" d="M330 1292V694L612 731Q616 733 641 733Q676 733 676 694Q676 644 647 641L330 602V92Q510 70 575 70Q684 70 817 97T1080 194T1294 398T1380 731Q1380 885 1312 996T1136 1177T909 1277T680 1309Q513 1309 330 1292ZM219 4V586L129 571Q125 571 121 571T111 569Q93 569 86 588T78 631Q78 663 106 666L219 680V1266Q199 1262 190 1262Q160 1262 160 1319Q160 1345 168 1351T219 1366V1368Q219 1389 243 1403T291 1417Q318 1417 323 1412T330 1382Q407 1395 475 1397Q558 1403 668 1403Q832 1403 981 1359T1247 1230T1430 1019T1497 737Q1497 425 1327 255T953 30T598 -25Q533 -25 421 -18T219 4Z"/><glyph unicode="Ñ" horiz-adv-x="1698" d="M1362 201V1348Q1362 1366 1382 1377T1425 1389Q1447 1389 1460 1379T1473 1356V2Q1473 -31 1446 -31Q1425 -31 1407 -8L334 1196V39Q334 19 314 6T266 -8Q243 -8 233 0T223 31V1384Q223 1395 234 1405T258 1415Q281 1415 299 1393L1362 201ZM747 1659Q710 1659 699 1639T680 1587Q677 1575 672 1571T647 1567Q629 1567 618 1581T606 1614Q606 1667 650 1710T739 1753Q770 1753 838 1716Q908 1679 928 1679Q978 1679 992 1705T1014 1772Q1017 1792 1023 1799T1044 1806Q1094 1806 1094 1774Q1094 1712 1048 1649T936 1585Q907 1585 837 1622T747 1659Z"/><glyph unicode="Ò" horiz-adv-x="1683" d="M1575 709Q1575 539 1520 401T1364 169T1118 25T793 -25Q590 -25 436 57T195 298T109 670Q109 826 159 961T307 1198T542 1354T846 1409Q1074 1409 1239 1323T1489 1078T1575 709ZM1458 709Q1458 848 1419 957T1301 1146T1107 1267T846 1309Q703 1309 587 1261T390 1128T267 926T225 678Q225 494 296 357T499 148T801 76Q1006 76 1153 151T1379 370T1458 709ZM694 1847L979 1614Q995 1601 995 1585Q995 1575 978 1558T952 1540Q939 1540 918 1559L635 1774Q627 1780 621 1785T611 1795T608 1804Q608 1818 616 1833T629 1853Q645 1868 655 1868Q669 1868 694 1847Z"/><glyph unicode="Ó" horiz-adv-x="1683" d="M1575 709Q1575 539 1520 401T1364 169T1118 25T793 -25Q590 -25 436 57T195 298T109 670Q109 826 159 961T307 1198T542 1354T846 1409Q1074 1409 1239 1323T1489 1078T1575 709ZM1458 709Q1458 848 1419 957T1301 1146T1107 1267T846 1309Q703 1309 587 1261T390 1128T267 926T225 678Q225 494 296 357T499 148T801 76Q1006 76 1153 151T1379 370T1458 709ZM705 1614L989 1847Q1015 1868 1028 1868Q1039 1868 1055 1853Q1060 1848 1067 1832T1075 1804Q1075 1796 1049 1774L766 1559Q745 1540 731 1540Q722 1540 705 1557T688 1585Q688 1601 705 1614Z"/><glyph unicode="Ô" horiz-adv-x="1683" d="M1575 709Q1575 539 1520 401T1364 169T1118 25T793 -25Q590 -25 436 57T195 298T109 670Q109 826 159 961T307 1198T542 1354T846 1409Q1074 1409 1239 1323T1489 1078T1575 709ZM1458 709Q1458 848 1419 957T1301 1146T1107 1267T846 1309Q703 1309 587 1261T390 1128T267 926T225 678Q225 494 296 357T499 148T801 76Q1006 76 1153 151T1379 370T1458 709ZM1043 1563L842 1761Q840 1761 766 1687T641 1563Q620 1544 606 1544Q597 1544 580 1561T563 1589Q563 1605 580 1618L803 1851Q828 1872 842 1872Q855 1872 881 1851L1104 1618Q1120 1605 1120 1589Q1120 1579 1103 1562T1077 1544Q1064 1544 1043 1563Z"/><glyph unicode="Õ" horiz-adv-x="1683" d="M1575 709Q1575 539 1520 401T1364 169T1118 25T793 -25Q590 -25 436 57T195 298T109 670Q109 826 159 961T307 1198T542 1354T846 1409Q1074 1409 1239 1323T1489 1078T1575 709ZM1458 709Q1458 848 1419 957T1301 1146T1107 1267T846 1309Q703 1309 587 1261T390 1128T267 926T225 678Q225 494 296 357T499 148T801 76Q1006 76 1153 151T1379 370T1458 709ZM738 1659Q701 1659 690 1639T671 1587Q668 1575 663 1571T638 1567Q620 1567 609 1581T597 1614Q597 1667 641 1710T730 1753Q761 1753 829 1716Q899 1679 919 1679Q969 1679 983 1705T1005 1772Q1008 1792 1014 1799T1035 1806Q1085 1806 1085 1774Q1085 1712 1039 1649T927 1585Q898 1585 828 1622T738 1659Z"/><glyph unicode="Ö" horiz-adv-x="1683" d="M1575 709Q1575 539 1520 401T1364 169T1118 25T793 -25Q590 -25 436 57T195 298T109 670Q109 826 159 961T307 1198T542 1354T846 1409Q1074 1409 1239 1323T1489 1078T1575 709ZM1458 709Q1458 848 1419 957T1301 1146T1107 1267T846 1309Q703 1309 587 1261T390 1128T267 926T225 678Q225 494 296 357T499 148T801 76Q1006 76 1153 151T1379 370T1458 709ZM752 1671Q752 1646 730 1616T678 1585Q604 1585 604 1671Q604 1693 628 1725T678 1757Q712 1757 732 1736T752 1671ZM1079 1671Q1079 1645 1058 1615T1006 1585Q932 1585 932 1671Q932 1693 956 1725T1006 1757Q1040 1757 1059 1736T1079 1671Z"/><glyph unicode="×" horiz-adv-x="987" d="M475 639L719 932Q737 954 750 954Q762 954 788 934T815 903Q815 889 809 883L547 569L805 309Q815 299 815 287Q815 264 794 243T752 221Q743 221 739 225L477 487L262 233Q248 219 240 219Q218 219 197 237T176 274Q176 287 182 293L406 559L170 793Q160 803 160 823Q160 846 181 867T217 889Q227 889 233 883L475 639Z"/><glyph unicode="Ø" horiz-adv-x="1690" d="M1253 1188L530 131Q649 76 801 76Q1006 76 1154 151T1381 370T1460 709Q1460 1028 1253 1188ZM442 182L1163 1241Q1033 1309 846 1309Q703 1309 587 1261T390 1128T267 926T225 678Q225 595 238 525T281 390T350 273T442 182ZM469 41L362 -115Q342 -147 328 -147Q313 -147 286 -128T258 -98Q258 -88 262 -82Q292 -39 321 4T381 90Q313 138 266 194T182 325T128 488T109 670Q109 826 159 961T307 1198T542 1354T846 1409Q1060 1409 1225 1329L1309 1454Q1320 1473 1325 1479T1341 1485Q1366 1485 1388 1467T1411 1430Q1411 1417 1407 1411L1315 1276Q1442 1186 1508 1041T1575 709Q1575 539 1520 401T1364 169T1118 25T793 -25Q613 -25 469 41Z"/><glyph unicode="Ù" horiz-adv-x="1571" d="M1235 584V1368Q1235 1387 1256 1399T1296 1411Q1346 1411 1346 1376V563Q1346 411 1295 279T1115 61T772 -25Q571 -25 449 51T275 253T223 530V1356Q223 1374 243 1384T283 1395Q315 1395 324 1387T334 1362V561Q334 74 782 74Q915 74 1005 119T1145 238T1215 401T1235 584ZM639 1847L924 1614Q940 1601 940 1585Q940 1575 923 1558T897 1540Q884 1540 863 1559L580 1774Q572 1780 566 1785T556 1795T553 1804Q553 1818 561 1833T574 1853Q590 1868 600 1868Q614 1868 639 1847Z"/><glyph unicode="Ú" horiz-adv-x="1571" d="M1235 584V1368Q1235 1387 1256 1399T1296 1411Q1346 1411 1346 1376V563Q1346 411 1295 279T1115 61T772 -25Q571 -25 449 51T275 253T223 530V1356Q223 1374 243 1384T283 1395Q315 1395 324 1387T334 1362V561Q334 74 782 74Q915 74 1005 119T1145 238T1215 401T1235 584ZM650 1614L934 1847Q960 1868 973 1868Q984 1868 1000 1853Q1005 1848 1012 1832T1020 1804Q1020 1796 994 1774L711 1559Q690 1540 676 1540Q667 1540 650 1557T633 1585Q633 1601 650 1614Z"/><glyph unicode="Û" horiz-adv-x="1571" d="M1235 584V1368Q1235 1387 1256 1399T1296 1411Q1346 1411 1346 1376V563Q1346 411 1295 279T1115 61T772 -25Q571 -25 449 51T275 253T223 530V1356Q223 1374 243 1384T283 1395Q315 1395 324 1387T334 1362V561Q334 74 782 74Q915 74 1005 119T1145 238T1215 401T1235 584ZM988 1563L787 1761Q785 1761 711 1687T586 1563Q565 1544 551 1544Q542 1544 525 1561T508 1589Q508 1605 525 1618L748 1851Q773 1872 787 1872Q800 1872 826 1851L1049 1618Q1065 1605 1065 1589Q1065 1579 1048 1562T1022 1544Q1009 1544 988 1563Z"/><glyph unicode="Ü" horiz-adv-x="1571" d="M1235 584V1368Q1235 1387 1256 1399T1296 1411Q1346 1411 1346 1376V563Q1346 411 1295 279T1115 61T772 -25Q571 -25 449 51T275 253T223 530V1356Q223 1374 243 1384T283 1395Q315 1395 324 1387T334 1362V561Q334 74 782 74Q915 74 1005 119T1145 238T1215 401T1235 584ZM697 1671Q697 1646 675 1616T623 1585Q549 1585 549 1671Q549 1693 573 1725T623 1757Q657 1757 677 1736T697 1671ZM1024 1671Q1024 1645 1003 1615T951 1585Q877 1585 877 1671Q877 1693 901 1725T951 1757Q985 1757 1004 1736T1024 1671Z"/><glyph unicode="Ý" horiz-adv-x="1118" d="M555 705L1085 1386Q1105 1411 1107 1413T1126 1415Q1139 1415 1163 1396T1188 1364Q1188 1345 1178 1331L602 604V29Q602 9 584 -7T543 -23Q492 -23 492 10V616L-43 1327Q-46 1332 -48 1336T-52 1344T-53 1362Q-53 1371 -29 1391T8 1411Q28 1411 30 1410T41 1395L555 705ZM423 1614L707 1847Q733 1868 746 1868Q757 1868 773 1853Q778 1848 785 1832T793 1804Q793 1796 767 1774L484 1559Q463 1540 449 1540Q440 1540 423 1557T406 1585Q406 1601 423 1614Z"/><glyph unicode="Þ" horiz-adv-x="1112" d="M328 1075V496Q887 496 887 819Q887 935 813 995T655 1073T502 1090Q429 1090 328 1075ZM1004 819Q1004 567 781 483T328 395V41Q328 22 312 6T279 -10Q219 -10 219 23V1051Q219 1051 205 1051Q174 1051 174 1108Q174 1139 217 1155V1354Q217 1395 270 1395Q326 1395 326 1348V1178Q424 1190 502 1190Q597 1190 709 1165T912 1057T1004 819Z"/><glyph unicode="ß" horiz-adv-x="1001" d="M147 20V1063Q147 1155 180 1235T277 1365T434 1415Q571 1415 650 1343T729 1169Q729 1085 702 1032T620 921T543 834T522 752Q522 700 596 648T744 548T873 430T928 248Q928 187 908 136T851 49T762 -6T649 -25Q588 -25 517 -5T403 39Q389 44 389 70Q389 89 402 112T434 135Q443 135 471 121Q573 61 645 61Q720 61 772 109T825 244Q825 333 773 388T619 505T469 614T420 743Q420 820 446 866T525 962T602 1052T627 1159Q627 1239 570 1279T436 1319Q348 1319 301 1255T254 1063V23Q254 10 237 0T195 -10Q179 -10 163 -1T147 20Z"/><glyph unicode="à" horiz-adv-x="891" d="M612 162Q471 -25 297 -25Q198 -25 129 8T59 150Q59 213 92 270T186 372T327 439T500 463Q560 463 612 451V500Q612 618 590 687T487 756Q421 756 367 729T283 670Q262 651 233 651Q218 651 198 672T178 702Q178 721 183 729T209 748Q239 765 271 782T340 814T419 838T510 848Q639 848 678 751T717 500V162Q717 114 740 85T784 55Q809 55 816 49T823 23Q823 -9 812 -23T764 -37Q703 -37 658 17T612 162ZM612 315V356Q601 360 573 366T494 373Q406 373 330 342T211 261T168 154Q168 63 295 63Q401 63 482 144T612 315ZM299 1292L584 1059Q600 1046 600 1030Q600 1020 583 1003T557 985Q544 985 523 1004L240 1219Q232 1225 226 1230T216 1240T213 1249Q213 1263 221 1278T234 1298Q250 1313 260 1313Q274 1313 299 1292Z"/><glyph unicode="á" horiz-adv-x="891" d="M612 162Q471 -25 297 -25Q198 -25 129 8T59 150Q59 213 92 270T186 372T327 439T500 463Q560 463 612 451V500Q612 618 590 687T487 756Q421 756 367 729T283 670Q262 651 233 651Q218 651 198 672T178 702Q178 721 183 729T209 748Q239 765 271 782T340 814T419 838T510 848Q639 848 678 751T717 500V162Q717 114 740 85T784 55Q809 55 816 49T823 23Q823 -9 812 -23T764 -37Q703 -37 658 17T612 162ZM612 315V356Q601 360 573 366T494 373Q406 373 330 342T211 261T168 154Q168 63 295 63Q401 63 482 144T612 315ZM310 1059L594 1292Q620 1313 633 1313Q644 1313 660 1298Q665 1293 672 1277T680 1249Q680 1241 654 1219L371 1004Q350 985 336 985Q327 985 310 1002T293 1030Q293 1046 310 1059Z"/><glyph unicode="â" horiz-adv-x="891" d="M612 162Q471 -25 297 -25Q198 -25 129 8T59 150Q59 213 92 270T186 372T327 439T500 463Q560 463 612 451V500Q612 618 590 687T487 756Q421 756 367 729T283 670Q262 651 233 651Q218 651 198 672T178 702Q178 721 183 729T209 748Q239 765 271 782T340 814T419 838T510 848Q639 848 678 751T717 500V162Q717 114 740 85T784 55Q809 55 816 49T823 23Q823 -9 812 -23T764 -37Q703 -37 658 17T612 162ZM612 315V356Q601 360 573 366T494 373Q406 373 330 342T211 261T168 154Q168 63 295 63Q401 63 482 144T612 315ZM648 1008L447 1206Q445 1206 371 1132T246 1008Q225 989 211 989Q202 989 185 1006T168 1034Q168 1050 185 1063L408 1296Q433 1317 447 1317Q460 1317 486 1296L709 1063Q725 1050 725 1034Q725 1024 708 1007T682 989Q669 989 648 1008Z"/><glyph unicode="ã" horiz-adv-x="891" d="M612 162Q471 -25 297 -25Q198 -25 129 8T59 150Q59 213 92 270T186 372T327 439T500 463Q560 463 612 451V500Q612 618 590 687T487 756Q421 756 367 729T283 670Q262 651 233 651Q218 651 198 672T178 702Q178 721 183 729T209 748Q239 765 271 782T340 814T419 838T510 848Q639 848 678 751T717 500V162Q717 114 740 85T784 55Q809 55 816 49T823 23Q823 -9 812 -23T764 -37Q703 -37 658 17T612 162ZM612 315V356Q601 360 573 366T494 373Q406 373 330 342T211 261T168 154Q168 63 295 63Q401 63 482 144T612 315ZM343 1104Q306 1104 295 1084T276 1032Q273 1020 268 1016T243 1012Q225 1012 214 1026T202 1059Q202 1112 246 1155T335 1198Q366 1198 434 1161Q504 1124 524 1124Q574 1124 588 1150T610 1217Q613 1237 619 1244T640 1251Q690 1251 690 1219Q690 1157 644 1094T532 1030Q503 1030 433 1067T343 1104Z"/><glyph unicode="ä" horiz-adv-x="891" d="M612 162Q471 -25 297 -25Q198 -25 129 8T59 150Q59 213 92 270T186 372T327 439T500 463Q560 463 612 451V500Q612 618 590 687T487 756Q421 756 367 729T283 670Q262 651 233 651Q218 651 198 672T178 702Q178 721 183 729T209 748Q239 765 271 782T340 814T419 838T510 848Q639 848 678 751T717 500V162Q717 114 740 85T784 55Q809 55 816 49T823 23Q823 -9 812 -23T764 -37Q703 -37 658 17T612 162ZM612 315V356Q601 360 573 366T494 373Q406 373 330 342T211 261T168 154Q168 63 295 63Q401 63 482 144T612 315ZM357 1116Q357 1091 335 1061T283 1030Q209 1030 209 1116Q209 1138 233 1170T283 1202Q317 1202 337 1181T357 1116ZM684 1116Q684 1090 663 1060T611 1030Q537 1030 537 1116Q537 1138 561 1170T611 1202Q645 1202 664 1181T684 1116Z"/><glyph unicode="å" horiz-adv-x="891" d="M612 162Q471 -25 297 -25Q198 -25 129 8T59 150Q59 213 92 270T186 372T327 439T500 463Q560 463 612 451V500Q612 618 590 687T487 756Q421 756 367 729T283 670Q262 651 233 651Q218 651 198 672T178 702Q178 721 183 729T209 748Q239 765 271 782T340 814T419 838T510 848Q639 848 678 751T717 500V162Q717 114 740 85T784 55Q809 55 816 49T823 23Q823 -9 812 -23T764 -37Q703 -37 658 17T612 162ZM612 315V356Q601 360 573 366T494 373Q406 373 330 342T211 261T168 154Q168 63 295 63Q401 63 482 144T612 315ZM368 1167Q368 1134 388 1115T431 1096Q465 1096 491 1122T517 1194Q517 1229 493 1248T448 1268Q419 1268 394 1241T368 1167ZM472 1358Q509 1358 540 1334T591 1272T610 1198Q610 1164 587 1120T520 1044T417 1012Q348 1012 314 1050T280 1145Q280 1219 329 1288T472 1358Z"/><glyph unicode="æ" horiz-adv-x="1296" d="M612 338V350Q583 371 494 371Q402 371 328 341T211 259T168 154Q168 101 204 84T295 66Q396 66 479 155T612 338ZM1094 668Q1094 701 1068 730T985 760Q923 760 870 711T782 588T733 432Q836 436 920 473T1049 563T1094 668ZM297 -25Q198 -25 129 8T59 150Q59 213 92 270T186 372T327 439T500 463Q560 463 612 451V500V540Q612 640 589 698T487 756Q421 756 367 729T283 670Q262 651 246 651Q233 651 212 673T190 705Q190 723 193 731T209 748Q360 848 510 848Q672 848 705 647Q736 707 781 753T881 826T989 852Q1063 852 1110 828T1179 764T1202 676Q1202 573 1119 498T922 384T727 342V328Q727 188 791 127T950 66Q1004 66 1040 81T1118 127Q1139 139 1147 139Q1167 139 1184 124T1202 82Q1202 66 1186 55Q1121 14 1067 -5T946 -25Q836 -25 754 27T635 188L612 162Q568 109 518 66T413 -1T297 -25Z"/><glyph unicode="ç" horiz-adv-x="750" d="M369 -23Q249 -8 174 83T98 342Q98 487 146 604T279 787T467 852Q561 852 618 807Q628 799 642 782T657 745Q654 724 638 708T600 692Q585 692 545 733Q507 760 463 760Q330 760 270 637T209 346Q209 199 270 134T412 68Q445 68 471 74T518 90T559 111T598 135Q607 141 611 144T619 149T635 150Q648 150 665 133T682 92Q682 85 682 84T670 70Q642 42 578 15T449 -23Q434 -62 434 -98Q434 -121 445 -127T492 -147Q549 -165 549 -217Q549 -279 500 -318T383 -358Q331 -358 298 -343T264 -305Q264 -295 278 -277T301 -258Q308 -258 322 -265T350 -276T379 -281Q410 -281 429 -267T449 -231Q449 -212 435 -202T395 -184T357 -166T344 -139Q344 -98 369 -23Z"/><glyph unicode="è" horiz-adv-x="780" d="M211 342V328Q211 188 275 127T434 66Q488 66 524 81T602 127Q610 132 616 135T631 139Q651 139 668 124T686 82Q686 66 670 55Q605 14 551 -5T430 -25Q283 -25 192 63T100 342Q100 438 130 530T211 694T332 809T473 852Q547 852 594 828T663 764T686 676Q686 573 603 498T406 384T211 342ZM578 668Q578 701 552 730T469 760Q407 760 354 711T266 588T217 432Q320 436 404 473T533 563T578 668ZM244 1292L529 1059Q545 1046 545 1030Q545 1020 528 1003T502 985Q489 985 468 1004L185 1219Q177 1225 171 1230T161 1240T158 1249Q158 1263 166 1278T179 1298Q195 1313 205 1313Q219 1313 244 1292Z"/><glyph unicode="é" horiz-adv-x="780" d="M211 342V328Q211 188 275 127T434 66Q488 66 524 81T602 127Q610 132 616 135T631 139Q651 139 668 124T686 82Q686 66 670 55Q605 14 551 -5T430 -25Q283 -25 192 63T100 342Q100 438 130 530T211 694T332 809T473 852Q547 852 594 828T663 764T686 676Q686 573 603 498T406 384T211 342ZM578 668Q578 701 552 730T469 760Q407 760 354 711T266 588T217 432Q320 436 404 473T533 563T578 668ZM255 1059L539 1292Q565 1313 578 1313Q589 1313 605 1298Q610 1293 617 1277T625 1249Q625 1241 599 1219L316 1004Q295 985 281 985Q272 985 255 1002T238 1030Q238 1046 255 1059Z"/><glyph unicode="ê" horiz-adv-x="780" d="M211 342V328Q211 188 275 127T434 66Q488 66 524 81T602 127Q610 132 616 135T631 139Q651 139 668 124T686 82Q686 66 670 55Q605 14 551 -5T430 -25Q283 -25 192 63T100 342Q100 438 130 530T211 694T332 809T473 852Q547 852 594 828T663 764T686 676Q686 573 603 498T406 384T211 342ZM578 668Q578 701 552 730T469 760Q407 760 354 711T266 588T217 432Q320 436 404 473T533 563T578 668ZM593 1008L392 1206Q390 1206 316 1132T191 1008Q170 989 156 989Q147 989 130 1006T113 1034Q113 1050 130 1063L353 1296Q378 1317 392 1317Q405 1317 431 1296L654 1063Q670 1050 670 1034Q670 1024 653 1007T627 989Q614 989 593 1008Z"/><glyph unicode="ë" horiz-adv-x="780" d="M211 342V328Q211 188 275 127T434 66Q488 66 524 81T602 127Q610 132 616 135T631 139Q651 139 668 124T686 82Q686 66 670 55Q605 14 551 -5T430 -25Q283 -25 192 63T100 342Q100 438 130 530T211 694T332 809T473 852Q547 852 594 828T663 764T686 676Q686 573 603 498T406 384T211 342ZM578 668Q578 701 552 730T469 760Q407 760 354 711T266 588T217 432Q320 436 404 473T533 563T578 668ZM302 1116Q302 1091 280 1061T228 1030Q154 1030 154 1116Q154 1138 178 1170T228 1202Q262 1202 282 1181T302 1116ZM629 1116Q629 1090 608 1060T556 1030Q482 1030 482 1116Q482 1138 506 1170T556 1202Q590 1202 609 1181T629 1116Z"/><glyph unicode="ì" horiz-adv-x="412" d="M258 860V35Q258 16 241 5T203 -6Q187 -6 170 3T152 23V840Q152 880 203 887Q258 887 258 860ZM315 1292L600 1059Q616 1046 616 1030Q616 1020 599 1003T573 985Q560 985 539 1004L256 1219Q248 1225 242 1230T232 1240T229 1249Q229 1263 237 1278T250 1298Q266 1313 276 1313Q290 1313 315 1292Z"/><glyph unicode="í" horiz-adv-x="412" d="M258 860V35Q258 16 241 5T203 -6Q187 -6 170 3T152 23V840Q152 880 203 887Q258 887 258 860ZM326 1059L610 1292Q636 1313 649 1313Q660 1313 676 1298Q681 1293 688 1277T696 1249Q696 1241 670 1219L387 1004Q366 985 352 985Q343 985 326 1002T309 1030Q309 1046 326 1059Z"/><glyph unicode="î" horiz-adv-x="412" d="M258 860V35Q258 16 241 5T203 -6Q187 -6 170 3T152 23V840Q152 880 203 887Q258 887 258 860ZM664 1008L463 1206Q461 1206 387 1132T262 1008Q241 989 227 989Q218 989 201 1006T184 1034Q184 1050 201 1063L424 1296Q449 1317 463 1317Q476 1317 502 1296L725 1063Q741 1050 741 1034Q741 1024 724 1007T698 989Q685 989 664 1008Z"/><glyph unicode="ï" horiz-adv-x="412" d="M258 860V35Q258 16 241 5T203 -6Q187 -6 170 3T152 23V840Q152 880 203 887Q258 887 258 860ZM373 1116Q373 1091 351 1061T299 1030Q225 1030 225 1116Q225 1138 249 1170T299 1202Q333 1202 353 1181T373 1116ZM700 1116Q700 1090 679 1060T627 1030Q553 1030 553 1116Q553 1138 577 1170T627 1202Q661 1202 680 1181T700 1116Z"/><glyph unicode="ð" horiz-adv-x="936" d="M719 440Q719 545 690 616T606 724T475 760Q404 760 343 707T245 566T209 385Q209 279 239 208T323 101T449 66Q518 66 580 116T680 252T719 440ZM430 1278L598 1341Q624 1352 657 1352Q694 1352 694 1296Q694 1285 686 1278T664 1267T637 1257Q568 1237 498 1204Q533 1162 581 1097T670 963T747 810T803 645Q827 544 827 440Q827 314 772 206T629 37T444 -25Q291 -25 195 81T98 381Q98 468 127 552T208 704T329 812T475 852Q578 852 633 817Q598 905 559 964T477 1071T395 1161Q317 1129 247 1097T170 1065Q133 1065 133 1120Q133 1140 137 1147T162 1163Q181 1171 216 1186T334 1235Q278 1286 236 1312T150 1362Q130 1373 127 1376T123 1397Q123 1417 133 1434T172 1452Q187 1452 225 1435T318 1377T430 1278Z"/><glyph unicode="ñ" horiz-adv-x="975" d="M256 803V539Q292 619 342 690T457 806T594 852Q685 852 755 778T825 528V37Q825 21 804 12T762 2Q719 2 719 35V551Q719 648 681 703T575 758Q515 758 452 693T338 530T256 338V6Q256 -10 239 -19T201 -29Q150 -29 150 -8V795Q150 814 172 825T217 836Q239 836 247 830T256 803ZM384 1104Q347 1104 336 1084T317 1032Q314 1020 309 1016T284 1012Q266 1012 255 1026T243 1059Q243 1112 287 1155T376 1198Q407 1198 475 1161Q545 1124 565 1124Q615 1124 629 1150T651 1217Q654 1237 660 1244T681 1251Q731 1251 731 1219Q731 1157 685 1094T573 1030Q544 1030 474 1067T384 1104Z"/><glyph unicode="ò" horiz-adv-x="932" d="M827 440Q827 314 772 206T629 37T444 -25Q291 -25 195 81T98 381Q98 468 127 552T208 704T329 812T475 852Q579 852 660 804T784 663T827 440ZM719 440Q719 545 690 616T606 724T475 760Q404 760 343 707T245 566T209 385Q209 279 239 208T323 101T449 66Q518 66 580 116T680 252T719 440ZM320 1292L605 1059Q621 1046 621 1030Q621 1020 604 1003T578 985Q565 985 544 1004L261 1219Q253 1225 247 1230T237 1240T234 1249Q234 1263 242 1278T255 1298Q271 1313 281 1313Q295 1313 320 1292Z"/><glyph unicode="ó" horiz-adv-x="932" d="M827 440Q827 314 772 206T629 37T444 -25Q291 -25 195 81T98 381Q98 468 127 552T208 704T329 812T475 852Q579 852 660 804T784 663T827 440ZM719 440Q719 545 690 616T606 724T475 760Q404 760 343 707T245 566T209 385Q209 279 239 208T323 101T449 66Q518 66 580 116T680 252T719 440ZM330 1059L614 1292Q640 1313 653 1313Q664 1313 680 1298Q685 1293 692 1277T700 1249Q700 1241 674 1219L391 1004Q370 985 356 985Q347 985 330 1002T313 1030Q313 1046 330 1059Z"/><glyph unicode="ô" horiz-adv-x="932" d="M827 440Q827 314 772 206T629 37T444 -25Q291 -25 195 81T98 381Q98 468 127 552T208 704T329 812T475 852Q579 852 660 804T784 663T827 440ZM719 440Q719 545 690 616T606 724T475 760Q404 760 343 707T245 566T209 385Q209 279 239 208T323 101T449 66Q518 66 580 116T680 252T719 440ZM668 1008L467 1206Q465 1206 391 1132T266 1008Q245 989 231 989Q222 989 205 1006T188 1034Q188 1050 205 1063L428 1296Q453 1317 467 1317Q480 1317 506 1296L729 1063Q745 1050 745 1034Q745 1024 728 1007T702 989Q689 989 668 1008Z"/><glyph unicode="õ" horiz-adv-x="932" d="M827 440Q827 314 772 206T629 37T444 -25Q291 -25 195 81T98 381Q98 468 127 552T208 704T329 812T475 852Q579 852 660 804T784 663T827 440ZM719 440Q719 545 690 616T606 724T475 760Q404 760 343 707T245 566T209 385Q209 279 239 208T323 101T449 66Q518 66 580 116T680 252T719 440ZM364 1104Q327 1104 316 1084T297 1032Q294 1020 289 1016T264 1012Q246 1012 235 1026T223 1059Q223 1112 267 1155T356 1198Q387 1198 455 1161Q525 1124 545 1124Q595 1124 609 1150T631 1217Q634 1237 640 1244T661 1251Q711 1251 711 1219Q711 1157 665 1094T553 1030Q524 1030 454 1067T364 1104Z"/><glyph unicode="ö" horiz-adv-x="932" d="M827 440Q827 314 772 206T629 37T444 -25Q291 -25 195 81T98 381Q98 468 127 552T208 704T329 812T475 852Q579 852 660 804T784 663T827 440ZM719 440Q719 545 690 616T606 724T475 760Q404 760 343 707T245 566T209 385Q209 279 239 208T323 101T449 66Q518 66 580 116T680 252T719 440ZM378 1116Q378 1091 356 1061T304 1030Q230 1030 230 1116Q230 1138 254 1170T304 1202Q338 1202 358 1181T378 1116ZM705 1116Q705 1090 684 1060T632 1030Q558 1030 558 1116Q558 1138 582 1170T632 1202Q666 1202 685 1181T705 1116Z"/><glyph unicode="÷" horiz-adv-x="987" d="M557 891Q557 859 534 838T477 817Q447 817 423 839T399 891Q399 921 423 943T477 965Q511 965 534 944T557 891ZM68 608L913 680Q934 680 945 664T956 625Q956 587 928 582L72 508Q57 508 47 527T37 565Q37 604 68 608ZM571 309Q571 276 548 256T492 236Q462 236 438 257T414 309Q414 339 438 361T492 383Q525 383 548 363T571 309Z"/><glyph unicode="ø" horiz-adv-x="932" d="M627 709L389 72Q418 66 449 66Q518 66 580 116T680 252T719 440Q719 628 627 709ZM301 117L537 754Q509 760 475 760Q404 760 343 707T245 566T209 385Q209 199 301 117ZM221 -102L266 20Q187 67 143 159T98 381Q98 468 127 552T208 704T329 812T475 852Q519 852 569 842L610 954Q618 973 624 979T643 985Q668 985 687 968T707 934Q707 922 702 915L662 803Q740 754 783 661T827 440Q827 314 772 206T629 37T444 -25Q409 -25 356 -14L315 -127Q307 -160 281 -160Q267 -160 242 -144T217 -119Q217 -109 221 -102Z"/><glyph unicode="ù" horiz-adv-x="975" d="M721 510V819Q721 835 741 844T782 854Q827 854 827 823V33Q827 13 807 2T768 -10Q721 -10 721 18V303Q682 226 627 156T509 40T383 -6Q291 -6 222 67T152 315V791Q152 809 171 817T217 825Q258 825 258 793V295Q258 198 296 142T401 86Q452 86 518 149T639 310T721 510ZM340 1292L625 1059Q641 1046 641 1030Q641 1020 624 1003T598 985Q585 985 564 1004L281 1219Q273 1225 267 1230T257 1240T254 1249Q254 1263 262 1278T275 1298Q291 1313 301 1313Q315 1313 340 1292Z"/><glyph unicode="ú" horiz-adv-x="975" d="M721 510V819Q721 835 741 844T782 854Q827 854 827 823V33Q827 13 807 2T768 -10Q721 -10 721 18V303Q682 226 627 156T509 40T383 -6Q291 -6 222 67T152 315V791Q152 809 171 817T217 825Q258 825 258 793V295Q258 198 296 142T401 86Q452 86 518 149T639 310T721 510ZM351 1059L635 1292Q661 1313 674 1313Q685 1313 701 1298Q706 1293 713 1277T721 1249Q721 1241 695 1219L412 1004Q391 985 377 985Q368 985 351 1002T334 1030Q334 1046 351 1059Z"/><glyph unicode="û" horiz-adv-x="975" d="M721 510V819Q721 835 741 844T782 854Q827 854 827 823V33Q827 13 807 2T768 -10Q721 -10 721 18V303Q682 226 627 156T509 40T383 -6Q291 -6 222 67T152 315V791Q152 809 171 817T217 825Q258 825 258 793V295Q258 198 296 142T401 86Q452 86 518 149T639 310T721 510ZM689 1008L488 1206Q486 1206 412 1132T287 1008Q266 989 252 989Q243 989 226 1006T209 1034Q209 1050 226 1063L449 1296Q474 1317 488 1317Q501 1317 527 1296L750 1063Q766 1050 766 1034Q766 1024 749 1007T723 989Q710 989 689 1008Z"/><glyph unicode="ü" horiz-adv-x="975" d="M721 510V819Q721 835 741 844T782 854Q827 854 827 823V33Q827 13 807 2T768 -10Q721 -10 721 18V303Q682 226 627 156T509 40T383 -6Q291 -6 222 67T152 315V791Q152 809 171 817T217 825Q258 825 258 793V295Q258 198 296 142T401 86Q452 86 518 149T639 310T721 510ZM398 1116Q398 1091 376 1061T324 1030Q250 1030 250 1116Q250 1138 274 1170T324 1202Q358 1202 378 1181T398 1116ZM725 1116Q725 1090 704 1060T652 1030Q578 1030 578 1116Q578 1138 602 1170T652 1202Q686 1202 705 1181T725 1116Z"/><glyph unicode="ý" horiz-adv-x="793" d="M784 797Q784 783 772 766Q731 718 689 647T591 451T455 131Q411 21 354 -135T259 -371T173 -497T55 -543Q-18 -543 -90 -508Q-99 -503 -104 -500T-110 -493T-111 -471Q-111 -455 -94 -432T-61 -408Q-48 -408 -6 -425T51 -442Q94 -442 133 -394T204 -275T258 -134T317 45Q296 140 270 237T219 411T160 574T84 754Q78 768 78 780Q78 792 102 806T139 821Q158 821 164 820T173 814T180 797Q235 671 273 563T337 365T381 203Q411 295 480 446T598 684Q642 761 657 784T705 834Q710 838 714 841T724 845T735 846Q751 846 767 829T784 797ZM261 1059L545 1292Q571 1313 584 1313Q595 1313 611 1298Q616 1293 623 1277T631 1249Q631 1241 605 1219L322 1004Q301 985 287 985Q278 985 261 1002T244 1030Q244 1046 261 1059Z"/><glyph unicode="þ" horiz-adv-x="967" d="M258 1403V524Q310 614 368 687T490 804T616 848Q856 848 856 561Q856 456 815 345T703 145T546 3T369 -49Q305 -49 258 -18V-514Q258 -531 241 -540T205 -549Q186 -549 169 -539T152 -512V1393Q152 1409 169 1421T209 1434Q258 1434 258 1403ZM258 338V147Q286 43 375 43Q443 43 510 89T630 212T714 379T745 557Q745 754 610 754Q542 754 474 682T356 521T258 338Z"/><glyph unicode="ÿ" horiz-adv-x="793" d="M784 797Q784 783 772 766Q731 718 689 647T591 451T455 131Q411 21 354 -135T259 -371T173 -497T55 -543Q-18 -543 -90 -508Q-99 -503 -104 -500T-110 -493T-111 -471Q-111 -455 -94 -432T-61 -408Q-48 -408 -6 -425T51 -442Q94 -442 133 -394T204 -275T258 -134T317 45Q296 140 270 237T219 411T160 574T84 754Q78 768 78 780Q78 792 102 806T139 821Q158 821 164 820T173 814T180 797Q235 671 273 563T337 365T381 203Q411 295 480 446T598 684Q642 761 657 784T705 834Q710 838 714 841T724 845T735 846Q751 846 767 829T784 797ZM308 1116Q308 1091 286 1061T234 1030Q160 1030 160 1116Q160 1138 184 1170T234 1202Q268 1202 288 1181T308 1116ZM635 1116Q635 1090 614 1060T562 1030Q488 1030 488 1116Q488 1138 512 1170T562 1202Q596 1202 615 1181T635 1116Z"/><glyph unicode="ı" horiz-adv-x="412" d="M258 860V35Q258 16 241 5T203 -6Q187 -6 170 3T152 23V840Q152 880 203 887Q258 887 258 860Z"/><glyph unicode="Ł" horiz-adv-x="1044" d="M70 514L219 631V1360Q219 1397 283 1397Q313 1397 320 1391T328 1364V715L543 883Q572 907 578 907Q629 907 629 842Q629 832 618 823L328 596V90L905 145Q913 146 919 146T938 147Q952 147 961 126T971 80Q971 42 928 39L307 -12Q267 -16 242 -16Q209 -16 209 35Q209 40 213 52T219 70V510L135 444Q117 426 104 426Q90 426 74 445T57 487Q57 505 70 514Z"/><glyph unicode="ł" horiz-adv-x="412" d="M-4 666L152 774V1409Q152 1427 173 1438T215 1450Q260 1450 260 1417V850L358 920Q394 944 399 944Q444 944 444 879Q444 870 434 860L260 737V25Q260 5 240 -6T201 -18Q152 -18 152 14V659L61 596Q55 592 46 585T31 578Q-16 578 -16 639Q-12 659 -4 666Z"/><glyph unicode="Œ" horiz-adv-x="2329" d="M1460 709Q1460 985 1299 1147T846 1309Q703 1309 587 1261T390 1128T267 926T225 678Q225 494 296 357T499 148T801 76Q1006 76 1154 151T1381 370T1460 709ZM1464 68V291Q1367 139 1195 57T793 -25Q590 -25 436 57T195 298T109 670Q109 826 159 961T307 1198T542 1354T846 1409Q1062 1409 1218 1335T1464 1120V1290Q1457 1296 1447 1311T1436 1348Q1436 1367 1443 1372T1470 1380L2052 1415Q2069 1416 2094 1419T2134 1423Q2167 1423 2167 1362Q2167 1335 2157 1328T2124 1319L1575 1286V776L2114 817Q2122 818 2127 818T2140 819Q2158 819 2168 799T2179 754Q2179 736 2168 730T2136 721L1575 674V88L2150 143Q2159 144 2166 144T2181 145Q2197 145 2206 123T2216 76Q2216 42 2173 39L1552 -12Q1512 -16 1489 -16Q1475 -16 1465 5T1454 37Q1454 48 1458 56T1464 68Z"/><glyph unicode="œ" horiz-adv-x="1401" d="M1198 668Q1198 689 1188 709T1154 745T1090 760Q1027 760 974 711T885 585T838 432Q940 436 1024 472T1153 563T1198 668ZM719 440Q719 545 690 616T606 724T475 760Q404 760 343 707T245 566T209 385Q209 279 239 208T323 101T449 66Q518 66 580 116T680 252T719 440ZM1094 852Q1166 852 1214 828T1285 763T1307 676Q1307 573 1224 498T1027 384T831 342V328Q831 188 895 127T1055 66Q1109 66 1145 81T1223 127Q1243 139 1251 139Q1272 139 1289 124T1307 82Q1307 65 1290 55Q1225 14 1171 -5T1051 -25Q983 -25 923 -6T820 55T750 164Q712 106 663 64T558 -2T444 -25Q291 -25 195 81T98 381Q98 468 127 552T208 704T329 812T475 852Q591 852 673 796T795 635Q849 734 927 793T1094 852Z"/><glyph unicode="Š" horiz-adv-x="1063" d="M467 803L608 733Q694 691 743 663T831 597T892 504T915 369Q915 229 854 141T703 14T526 -25Q410 -25 328 2T154 88Q135 99 131 105T127 131Q127 147 145 172T178 197Q186 197 194 192T212 180T231 166Q285 129 331 108T425 77T526 68Q617 68 713 138T809 356Q809 462 745 523T563 641L420 711Q317 761 259 801T162 905T123 1065Q123 1199 193 1275T355 1379T530 1407Q607 1407 670 1391T831 1335Q874 1320 874 1294Q874 1279 856 1255T819 1231Q814 1231 806 1233T786 1240T764 1249Q675 1287 632 1301T530 1315Q475 1315 405 1296T282 1220T229 1065Q229 968 285 917T467 803ZM533 1655L734 1853Q744 1863 750 1867T768 1872Q777 1872 794 1855T811 1827Q811 1811 795 1798L572 1565Q546 1544 533 1544Q512 1544 494 1565L269 1808Q254 1823 254 1827Q254 1839 270 1855T297 1872Q310 1872 314 1870T332 1853Q354 1831 393 1793T482 1705T533 1655Z"/><glyph unicode="š" horiz-adv-x="682" d="M299 520L436 446Q521 401 561 349T602 215Q602 98 517 36T299 -27Q244 -27 184 -8T78 37Q53 46 53 70Q53 89 66 112T98 135Q107 135 135 121Q237 61 309 61Q387 61 443 101T500 213Q500 262 470 294T379 358L244 432Q191 461 159 486T103 552T80 647Q80 716 123 760T227 825T332 846Q410 846 463 837T559 807Q576 801 580 795T584 770Q584 754 570 734T532 713Q528 713 494 726T420 748T334 758Q284 758 234 731T184 649Q184 615 205 590T254 547T299 520ZM343 1100L544 1298Q554 1308 560 1312T578 1317Q587 1317 604 1300T621 1272Q621 1256 605 1243L382 1010Q356 989 343 989Q322 989 304 1010L79 1253Q64 1268 64 1272Q64 1284 80 1300T107 1317Q120 1317 124 1315T142 1298Q164 1276 203 1238T292 1150T343 1100Z"/><glyph unicode="Ÿ" horiz-adv-x="1118" d="M555 705L1085 1386Q1105 1411 1107 1413T1126 1415Q1139 1415 1163 1396T1188 1364Q1188 1345 1178 1331L602 604V29Q602 9 584 -7T543 -23Q492 -23 492 10V616L-43 1327Q-46 1332 -48 1336T-52 1344T-53 1362Q-53 1371 -29 1391T8 1411Q28 1411 30 1410T41 1395L555 705ZM470 1671Q470 1646 448 1616T396 1585Q322 1585 322 1671Q322 1693 346 1725T396 1757Q430 1757 450 1736T470 1671ZM797 1671Q797 1645 776 1615T724 1585Q650 1585 650 1671Q650 1693 674 1725T724 1757Q758 1757 777 1736T797 1671Z"/><glyph unicode="Ž" horiz-adv-x="1096" d="M215 90L1044 111Q1060 111 1068 84T1077 35Q1077 10 1042 10L74 -8Q51 -8 51 18Q51 27 63 45L883 1305L129 1286Q117 1286 111 1286T98 1284Q66 1284 66 1325Q66 1380 98 1380L1020 1407Q1053 1407 1053 1393Q1053 1372 1038 1352L215 90ZM549 1655L750 1853Q760 1863 766 1867T784 1872Q793 1872 810 1855T827 1827Q827 1811 811 1798L588 1565Q562 1544 549 1544Q528 1544 510 1565L285 1808Q270 1823 270 1827Q270 1839 286 1855T313 1872Q326 1872 330 1870T348 1853Q370 1831 409 1793T498 1705T549 1655Z"/><glyph unicode="ž" horiz-adv-x="844" d="M186 74L768 106Q780 106 787 85T795 43Q795 24 786 19T752 12L45 -20Q37 -20 29 -11T20 6Q20 16 35 35L621 748L143 719Q131 719 120 719T96 717Q74 717 74 774Q74 805 117 809L752 842Q766 842 774 833T782 813Q782 801 764 778L186 74ZM422 1100L623 1298Q633 1308 639 1312T657 1317Q666 1317 683 1300T700 1272Q700 1256 684 1243L461 1010Q435 989 422 989Q401 989 383 1010L158 1253Q143 1268 143 1272Q143 1284 159 1300T186 1317Q199 1317 203 1315T221 1298Q243 1276 282 1238T371 1150T422 1100Z"/><glyph unicode="ƒ" horiz-adv-x="631" d="M152 844L291 860Q302 1012 341 1130T442 1314T586 1380Q649 1380 695 1361T741 1317Q741 1292 724 1272T690 1251Q676 1251 647 1267T565 1284Q495 1284 450 1159T395 870Q433 875 490 883T565 891Q582 891 588 870T594 827Q594 812 586 807T559 799L391 778Q373 499 344 277T277 -92T187 -312T68 -387Q3 -387 -44 -346T-92 -244Q-92 -223 -65 -211T-12 -199Q-2 -199 1 -201T5 -208T12 -233Q18 -255 38 -274T76 -293Q125 -293 163 -188T232 161T287 768Q262 764 220 758T162 752Q145 752 134 774T123 815Q123 840 152 844Z"/><glyph unicode="ˆ" horiz-adv-x="496" d="M449 1008L248 1206Q246 1206 172 1132T47 1008Q26 989 12 989Q3 989 -14 1006T-31 1034Q-31 1050 -14 1063L209 1296Q234 1317 248 1317Q261 1317 287 1296L510 1063Q526 1050 526 1034Q526 1024 509 1007T483 989Q470 989 449 1008Z"/><glyph unicode="ˇ" horiz-adv-x="496" d="M248 1100L449 1298Q459 1308 465 1312T483 1317Q492 1317 509 1300T526 1272Q526 1256 510 1243L287 1010Q261 989 248 989Q227 989 209 1010L-16 1253Q-31 1268 -31 1272Q-31 1284 -15 1300T12 1317Q25 1317 29 1315T47 1298Q69 1276 108 1238T197 1150T248 1100Z"/><glyph unicode="ˉ" horiz-adv-x="496" d="M57 1108L424 1120Q429 1121 433 1121T446 1122Q475 1122 475 1094Q475 1032 436 1032L66 1020Q60 1020 57 1020T49 1018Q42 1018 33 1026T23 1042Q23 1108 57 1108Z"/><glyph unicode="˘" horiz-adv-x="496" d="M520 1274Q520 1257 512 1237Q474 1122 418 1056T244 989Q129 989 70 1058T-23 1241Q-27 1253 -27 1272Q-27 1283 -11 1300T14 1317Q30 1317 34 1314T43 1298Q61 1258 83 1210T143 1131T244 1100Q298 1100 332 1118T387 1166T426 1242T449 1298Q451 1304 455 1310T469 1317Q487 1317 503 1303T520 1274Z"/><glyph unicode="˙" horiz-adv-x="496" d="M326 1100Q326 1069 304 1047T246 1024Q215 1024 192 1047T168 1100Q168 1132 191 1154T246 1176Q281 1176 303 1155T326 1100Z"/><glyph unicode="˚" horiz-adv-x="496" d="M170 1167Q170 1134 190 1115T233 1096Q267 1096 293 1122T319 1194Q319 1229 295 1248T250 1268Q221 1268 196 1241T170 1167ZM274 1358Q311 1358 342 1334T393 1272T412 1198Q412 1164 389 1120T322 1044T219 1012Q150 1012 116 1050T82 1145Q82 1219 131 1288T274 1358Z"/><glyph unicode="˛" horiz-adv-x="496" d="M330 -4Q330 -13 293 -32T232 -74T207 -143Q207 -184 229 -201T276 -219Q294 -219 320 -212T358 -205Q366 -205 375 -221T385 -254Q385 -269 354 -283T272 -297Q208 -297 157 -253T106 -145Q106 -45 219 10Q226 13 240 18T274 23Q330 23 330 -4Z"/><glyph unicode="˜" horiz-adv-x="496" d="M145 1104Q108 1104 97 1084T78 1032Q75 1020 70 1016T45 1012Q27 1012 16 1026T4 1059Q4 1112 48 1155T137 1198Q168 1198 236 1161Q306 1124 326 1124Q376 1124 390 1150T412 1217Q415 1237 421 1244T442 1251Q492 1251 492 1219Q492 1157 446 1094T334 1030Q305 1030 235 1067T145 1104Z"/><glyph unicode="˝" horiz-adv-x="496" d="M-31 1061L254 1294Q279 1315 293 1315Q303 1315 319 1300Q325 1296 332 1281T340 1251Q340 1243 329 1234T313 1221L31 1006Q9 987 -4 987Q-13 987 -30 1004T-47 1032Q-47 1048 -31 1061ZM297 1063L582 1296Q607 1317 621 1317Q630 1317 647 1303Q668 1277 668 1253Q668 1248 665 1244T656 1235T641 1223L358 1008Q337 989 324 989Q316 989 299 1006T281 1034Q281 1050 297 1063Z"/><glyph unicode="–" horiz-adv-x="1145" d="M84 543L1053 573Q1058 574 1062 574T1073 575Q1084 575 1093 562T1102 532Q1102 509 1091 493T1061 477L92 446Q87 446 84 446T76 444Q66 444 58 457T49 489Q49 543 84 543Z"/><glyph unicode="—" horiz-adv-x="1952" d="M86 551L1843 596Q1848 597 1852 597T1864 598Q1875 598 1883 583T1892 545Q1892 487 1851 487L94 442Q89 442 86 442T78 440Q68 440 60 454T51 489Q51 551 86 551Z"/><glyph unicode="‘" horiz-adv-x="287" d="M166 1417L236 1055Q238 1044 238 1036Q238 1019 210 1008T156 997Q135 997 127 1022L49 1399Q45 1419 45 1427Q45 1442 65 1453T121 1464Q144 1464 152 1456T166 1417Z"/><glyph unicode="’" horiz-adv-x="287" d="M51 1055L121 1417Q127 1448 135 1456T166 1464Q200 1464 221 1454T242 1427Q242 1419 238 1399L160 1022Q152 997 131 997Q106 997 78 1008T49 1036Q49 1044 51 1055Z"/><glyph unicode="‚" horiz-adv-x="287" d="M37 -219L106 143Q113 174 121 182T152 190Q183 190 205 180T227 154Q227 145 223 125L145 -252Q141 -276 109 -276Q82 -276 59 -265T35 -238Q35 -229 37 -219Z"/><glyph unicode="“" horiz-adv-x="580" d="M459 1417L528 1055Q530 1044 530 1036Q530 1020 502 1009T449 997Q428 997 420 1022L342 1399Q338 1419 338 1427Q338 1444 360 1454T414 1464Q436 1464 444 1456T459 1417ZM166 1417L236 1055Q238 1044 238 1036Q238 1019 210 1008T156 997Q135 997 127 1022L49 1399Q45 1419 45 1427Q45 1442 65 1453T121 1464Q144 1464 152 1456T166 1417Z"/><glyph unicode="”" horiz-adv-x="580" d="M342 1055L412 1417Q418 1447 426 1455T457 1464Q493 1464 512 1454T532 1427Q532 1419 528 1399L451 1022Q441 997 422 997Q397 997 369 1008T340 1036Q340 1044 342 1055ZM49 1055L119 1417Q125 1448 133 1456T164 1464Q198 1464 219 1454T240 1427Q240 1419 236 1399L158 1022Q150 997 129 997Q104 997 76 1008T47 1036Q47 1044 49 1055Z"/><glyph unicode="„" horiz-adv-x="559" d="M330 -219L399 143Q406 173 414 181T444 190Q481 190 500 180T520 154Q520 145 516 125L438 -252Q430 -276 410 -276Q385 -276 357 -265T328 -238Q328 -229 330 -219ZM37 -219L106 143Q113 174 121 182T152 190Q183 190 205 180T227 154Q227 145 223 125L145 -252Q137 -276 117 -276Q92 -276 64 -265T35 -238Q35 -229 37 -219Z"/><glyph unicode="†" horiz-adv-x="666" d="M385 899V-233Q385 -262 375 -274T328 -287Q300 -287 291 -281T281 -250V887L111 862Q100 860 90 860Q75 860 66 879T57 920Q57 954 86 961L281 981V1350Q281 1384 344 1384Q385 1384 385 1354V995L571 1016Q584 1018 600 1018Q615 1018 625 998T635 954Q635 929 606 926L385 899Z"/><glyph unicode="‡" horiz-adv-x="666" d="M86 252L281 274V887L111 862Q100 860 90 860Q75 860 66 879T57 920Q57 954 86 961L281 981V1350Q281 1384 344 1384Q385 1384 385 1354V995L571 1016Q584 1018 600 1018Q615 1018 625 998T635 954Q635 929 606 926L385 899V287L571 307Q584 309 600 309Q615 309 625 289T635 246Q635 220 606 217L385 190V-233Q385 -262 375 -274T328 -287Q300 -287 291 -281T281 -250V176L111 154Q100 152 90 152Q75 152 66 171T57 211Q57 249 86 252Z"/><glyph unicode="•" horiz-adv-x="504" d="M72 649Q72 744 123 820T256 897Q316 897 353 871T408 790T426 651Q426 603 404 554T342 475T256 444Q154 444 113 498T72 649Z"/><glyph unicode="…" horiz-adv-x="1282" d="M315 55Q315 30 293 0T242 -31Q168 -31 168 55Q168 77 192 109T242 141Q276 141 295 120T315 55ZM715 55Q715 31 693 0T641 -31Q567 -31 567 55Q567 77 591 109T641 141Q675 141 695 120T715 55ZM1114 55Q1114 31 1092 0T1040 -31Q1010 -31 989 -10T967 55Q967 77 991 109T1040 141Q1074 141 1094 120T1114 55Z"/><glyph unicode="‰" horiz-adv-x="1827" d="M465 1137Q465 1229 434 1264T338 1300Q278 1300 239 1242T199 1100Q199 936 322 936Q380 936 422 991T465 1137ZM569 1133Q569 1059 534 995T441 893T319 856Q220 856 156 920T92 1102Q92 1173 125 1237T216 1342T338 1382Q446 1382 507 1317T569 1133ZM238 31L913 1352Q923 1382 946 1382Q971 1382 988 1366T1006 1331Q1006 1319 1001 1313L332 6Q324 -27 297 -27Q283 -27 258 -11T233 14Q233 25 238 31ZM1141 252Q1141 178 1106 114T1013 12T891 -25Q792 -25 728 39T664 221Q664 294 697 358T787 462T909 502Q980 502 1032 473T1113 388T1141 252ZM1036 256Q1036 349 1005 384T909 420Q849 420 810 362T770 219Q770 55 893 55Q953 55 994 110T1036 256ZM1733 256Q1733 181 1698 118T1605 17T1483 -20Q1419 -20 1367 7T1285 90T1255 225Q1255 298 1288 362T1379 466T1501 506Q1571 506 1623 477T1704 392T1733 256ZM1628 260Q1628 353 1597 388T1501 424Q1441 424 1402 366T1362 223Q1362 59 1485 59Q1545 59 1586 114T1628 260Z"/><glyph unicode="‹" horiz-adv-x="496" d="M371 655L172 455Q172 455 246 380T371 254Q389 232 389 219Q389 198 374 187T344 176Q329 176 315 193L82 416Q61 436 61 455Q61 473 82 494L315 717Q333 733 344 733Q362 733 375 716T389 688Q389 675 371 655Z"/><glyph unicode="›" horiz-adv-x="496" d="M180 717L414 494Q434 468 434 455Q434 441 414 416L180 193Q167 176 152 176Q138 176 122 190T106 221Q106 235 125 254Q175 304 249 379T324 455L125 655Q121 661 116 666T109 676T106 690Q106 707 121 720T152 733Q167 733 180 717Z"/><glyph unicode="⁄" horiz-adv-x="258" d="M-203 33L391 1413Q403 1444 430 1444Q458 1444 472 1432T487 1401Q487 1398 479 1374L-111 8Q-126 -25 -152 -25Q-174 -25 -190 -10T-207 16Q-207 27 -203 33Z"/><glyph unicode="€" horiz-adv-x="1364" d="M1245 96Q1245 71 1238 64T1208 47Q1139 14 1060 -5T862 -25Q740 -25 618 14T395 129T222 310T123 545H16Q0 545 0 563Q0 592 11 613T49 635H109Q106 655 106 698Q106 733 109 750H16Q0 750 0 768Q0 797 11 818T49 840H121Q153 1003 250 1131T499 1333T831 1407Q963 1407 1040 1388T1202 1329Q1239 1314 1239 1284Q1239 1263 1224 1242T1188 1221Q1168 1221 1124 1241Q1028 1282 980 1295T831 1309Q682 1309 557 1249T347 1082T233 840H1149Q1176 840 1176 811Q1176 790 1168 770T1141 750H221Q219 733 219 698Q219 675 223 635H1108Q1135 635 1135 606Q1135 585 1127 565T1100 545H238Q266 440 329 352T479 201T664 106T862 74Q948 74 1001 85T1135 133Q1181 156 1190 156Q1214 156 1229 137T1245 96Z"/><glyph unicode="™" horiz-adv-x="1612" d="M1393 1370L1509 733Q1513 721 1513 711Q1513 674 1448 674Q1419 674 1415 707L1323 1225L1079 745Q1064 717 1040 717Q1017 717 1006 739L776 1214L670 709Q667 693 651 684T616 674Q573 674 573 711Q573 722 578 735L721 1370Q727 1401 758 1401Q778 1401 795 1370L1047 860L1315 1372Q1333 1403 1358 1403Q1387 1403 1393 1370ZM25 1350L567 1384Q588 1384 588 1360Q588 1336 582 1317T567 1298H551L338 1284V705Q338 693 325 685T285 676Q242 676 242 698V1280L55 1266Q31 1262 27 1262Q17 1262 12 1287T6 1325Q6 1350 25 1350Z"/><glyph unicode="Ω" horiz-adv-x="1573" d="M496 160Q388 227 331 290Q244 386 197 515T150 802Q150 998 229 1162T460 1415T808 1503Q1144 1503 1324 1249Q1455 1063 1455 801Q1455 633 1401 504T1260 281Q1207 223 1111 160L1475 166V0H900V177Q980 217 1024 255Q1096 316 1146 400T1221 579T1247 777Q1247 915 1198 1054T1048 1267T804 1340Q613 1340 508 1220Q362 1051 362 780Q362 563 453 408T704 180V0H127V168L496 160Z"/><glyph unicode="∂" horiz-adv-x="1012" d="M426 1138L291 1198Q361 1355 459 1423T651 1491Q727 1491 788 1452T881 1361Q928 1282 950 1174T973 926Q973 638 887 414T653 82T364 -25Q227 -25 142 66T56 322Q56 548 209 709Q406 916 858 924Q854 1092 834 1180T766 1315T653 1363Q591 1363 532 1314T426 1138ZM854 796Q610 782 497 728T310 552T236 303Q236 220 287 166T406 112Q481 112 566 167Q683 243 756 401T854 796Z"/><glyph unicode="∆" horiz-adv-x="1253" d="M1227 0H27L655 1386L1227 0ZM991 82L592 1049L152 82H991Z"/><glyph unicode="∏" horiz-adv-x="1686" d="M161 1491H1523V-431H1332V1317H354V-431H161V1491Z"/><glyph unicode="∑" horiz-adv-x="1460" d="M139 1491H1376V1327H388L995 552L346 -270H1386V-431H122V-244L742 544L139 1316V1491Z"/><glyph unicode="−" horiz-adv-x="987" d="M68 637L913 707Q931 707 938 698T950 670Q956 661 956 639Q956 631 947 621T928 610L72 541Q56 541 47 559T37 596Q37 611 46 623T68 637Z"/><glyph unicode="∕" horiz-adv-x="258" d="M-203 33L391 1413Q403 1444 430 1444Q458 1444 472 1432T487 1401Q487 1398 479 1374L-111 8Q-126 -25 -152 -25Q-174 -25 -190 -10T-207 16Q-207 27 -203 33Z"/><glyph unicode="∙" horiz-adv-x="307" d="M231 657Q231 632 209 602T158 571Q84 571 84 657Q84 679 108 711T158 743Q192 743 211 722T231 657Z"/><glyph unicode="√" horiz-adv-x="1124" d="M1124 1870L813 -78L317 944L119 852L84 915L385 1067L788 244H793L1051 1870H1124Z"/><glyph unicode="∞" horiz-adv-x="1460" d="M689 812Q794 944 853 986Q933 1044 1022 1044Q1127 1044 1218 968T1310 723Q1310 605 1276 538T1170 429T1022 388Q933 388 853 445Q794 488 689 620Q553 449 400 449Q299 449 227 525T154 716Q154 829 226 906T400 983Q553 983 689 812ZM758 717Q845 582 917 532Q963 499 1020 499Q1096 499 1147 555T1199 713Q1199 819 1147 875T1016 931Q967 931 924 903Q866 864 758 717ZM620 716Q540 816 492 844T400 873Q342 873 304 832T265 719Q265 648 305 606T402 563Q503 563 620 716Z"/><glyph unicode="∫" horiz-adv-x="561" d="M561 1755Q561 1726 549 1702T515 1666T467 1653Q431 1653 391 1688Q371 1708 352 1708Q311 1708 311 1645Q311 1599 322 1499Q340 1295 349 1128T358 834L356 713L342 242Q336 52 293 -78Q271 -145 225 -182T119 -219Q65 -219 33 -186T0 -98Q0 -54 25 -27T90 0Q132 0 160 -33Q173 -47 184 -55T209 -63Q248 -63 248 -2Q248 35 238 117Q218 287 209 512Q206 616 203 741Q201 811 201 895L217 1448Q223 1639 283 1765Q302 1805 346 1834T434 1864Q465 1864 495 1849T543 1808T561 1755Z"/><glyph unicode="≈" horiz-adv-x="1124" d="M51 738V943Q157 1063 329 1063Q389 1063 454 1046T643 976Q712 946 746 938T816 929Q881 929 950 968T1074 1066V854Q1010 794 945 767T797 740Q737 740 683 753T510 820T312 874Q248 874 192 847T51 738ZM51 376V581Q157 701 329 701Q389 701 454 684T643 614Q712 585 746 576T816 567Q881 567 950 606T1074 704V492Q1010 432 945 405T797 378Q737 378 683 392T510 459T312 512Q248 512 192 485T51 376Z"/><glyph unicode="≠" horiz-adv-x="1124" d="M495 417L301 -28H165L360 417H78V585H434L556 862H78V1030H629L825 1474H959L764 1030H1046V862H690L569 585H1046V417H495Z"/><glyph unicode="≤" horiz-adv-x="1124" d="M77 762V930L1048 1340V1160L278 845L1048 526V347L77 762ZM1046 106H78V273H1046V106Z"/><glyph unicode="≥" horiz-adv-x="1124" d="M1048 762L77 347V526L846 845L77 1160V1340L1048 930V762ZM1046 106H78V273H1046V106Z"/><glyph unicode="◊" horiz-adv-x="1012" d="M549 1422L967 709L549 0H438L47 709L438 1422H549ZM495 1325L155 709L495 94L854 709L495 1325Z"/><glyph unicode="" horiz-adv-x="889" d="M180 813V1063Q180 1165 192 1238T250 1363T385 1415Q475 1415 532 1393T653 1329Q668 1321 672 1314T676 1294Q676 1285 654 1259T618 1233Q605 1233 598 1235T586 1241T575 1251Q549 1277 500 1298T403 1319Q326 1319 307 1250T287 1063V834L461 854Q475 856 500 856Q535 856 535 817Q535 767 506 764L287 739V23Q287 10 270 0T227 -10Q210 -10 195 -1T180 20V721L82 707Q78 707 74 707T63 705Q31 705 31 756Q31 770 38 784T59 801L180 813ZM733 860V35Q733 15 716 5T678 -6Q662 -6 645 3T627 23V840Q627 880 678 887Q733 887 733 860Z"/><glyph unicode="" horiz-adv-x="889" d="M627 23V1206Q614 1207 608 1209T597 1216T590 1225Q565 1248 508 1270T403 1292Q326 1292 307 1233T287 1063V834L471 854Q475 856 500 856Q535 856 535 817Q535 767 506 764L287 739V23Q287 10 270 0T227 -10Q210 -10 195 -1T180 20V721L82 707Q78 707 74 707T63 705Q31 705 31 756Q31 770 38 784T59 801L180 813V1063Q180 1163 192 1230T250 1343T385 1389Q524 1389 627 1327V1378Q627 1418 678 1425Q733 1425 733 1399V35Q733 15 716 5T678 -6Q662 -6 645 3T627 23Z"/><glyph unicode="" horiz-adv-x="1413" d="M505 916V0H325V916H45V1062H1369V916H1127V0H947V916H505Z"/><glyph unicode="ﬁ" horiz-adv-x="889" d="M180 813V1063Q180 1165 192 1238T250 1363T385 1415Q475 1415 532 1393T653 1329Q668 1321 672 1314T676 1294Q676 1285 654 1259T618 1233Q605 1233 598 1235T586 1241T575 1251Q549 1277 500 1298T403 1319Q326 1319 307 1250T287 1063V834L461 854Q475 856 500 856Q535 856 535 817Q535 767 506 764L287 739V23Q287 10 270 0T227 -10Q210 -10 195 -1T180 20V721L82 707Q78 707 74 707T63 705Q31 705 31 756Q31 770 38 784T59 801L180 813ZM733 860V35Q733 15 716 5T678 -6Q662 -6 645 3T627 23V840Q627 880 678 887Q733 887 733 860Z"/><glyph unicode="ﬂ" horiz-adv-x="889" d="M627 23V1206Q614 1207 608 1209T597 1216T590 1225Q565 1248 508 1270T403 1292Q326 1292 307 1233T287 1063V834L471 854Q475 856 500 856Q535 856 535 817Q535 767 506 764L287 739V23Q287 10 270 0T227 -10Q210 -10 195 -1T180 20V721L82 707Q78 707 74 707T63 705Q31 705 31 756Q31 770 38 784T59 801L180 813V1063Q180 1163 192 1230T250 1343T385 1389Q524 1389 627 1327V1378Q627 1418 678 1425Q733 1425 733 1399V35Q733 15 716 5T678 -6Q662 -6 645 3T627 23Z"/></font>
</defs>
</svg>
